&title=「合同火力演習」Battle Theme
&artist=Nor
&first=-0.03
&des=Amatou_Kurage
&lv_5=13+
&inote_5=(172){4}8qq5[4:3]/4,4,4,4,3h[4:3],6,{8}6,6,6,,
{4}1pp4[4:3]/5,5,6,6,7>2[8:1],3<6[8:1],8-5[8:1]*-3[8:1],,
{4}7pp5[4:3]/4,4,4,4,3h[4:3],6,{8}6,6,6,,
{4}2qq4[4:3]/5,5,6,6,7>2[8:1],3<6[8:1],8-5[8:1]*-3[8:1],,
{16}6h[8:1]/2h[8:1],,,,6h[8:1]/2h[8:1],,,,34,,,45,,,56,,
3h[8:1]/7h[8:1],,,,3h[8:1]/7h[8:1],,,,65,,,54,,,43,,
6h[8:1]/1h[8:1],,,,6h[8:1]/1h[8:1],,,,24,,,45,,,57,,
3h[8:1]/8h[8:1],,,,3h[8:1]/8h[8:1],,,,5-8[8:1]/4-1[8:1],,,,,,,,
62,,3,,4h[8:1]/5h[8:1],,,,57,,,81,,,24,,
37,,6,,5h[8:1]/4h[8:1],,,,42,,,18,,,75,,
34,,2,,56,,7,,4,5,4,5,3,6,3,6,2-4[8:1],,,,1-5[8:1],,,,8-6[8:1],,,,6b,,,,
4w8[8:1],,,,,,,,46,,,28,,,37,,6/5v2[8:1],,7,,8h[8:1],,,,17,,,35,,,26,,4/8-3[8:1],,,,2V48[4:1]/8,,,,5,,,7,,,62,,3/4v7[8:1],,2,,1h[8:1],,,,86,,,24,,,5,5,
1>4[8:1]*<6[8:1],,,,,,,,53,,,71,,,62,,3/4<7[8:1],,2,,1h[8:1],,,,82,,,64,,,73,,5/1-6[8:1],,,,7V51[4:1]/1,,,,4,,,2,,,37,,8b-4[8:1]/4,,,,8b<5[8:1]*>3[8:1],,,,8bw4[8:1],,,,,,,,
2-5[8:1]/6,,1,,2/4V61[4:1],,,,46,,,8,,,42,,6,,75,,2,,34,,2>5[8:1]/1,,,1,2,,6,,
7-4[8:1]/3,,8,,7/5V38[4:1],,,,53,,,1,,,57,,3,,24,,7,,65,,7-5[8:1]/8-2[8:1],,,78,,,,,
34,,3,,37,,3,,13,,3,4,3,,54,,65,,6,,62,,6,,86,,6,5,6,,45,,3,4,2,5,1,6,8,7,{32}1,2,3,4,5,6,7,8,1,2,3,4,5,6,7,8,{16}1b-5[8:1]/5,,,,1b>4[8:1]*<6[8:1],,,,1bw5[8:1],,,,,,,,
3v8[8:1]/7-4[8:1],,,,37,,,,26,,,84,,,2V48[4:1]/6,,,,1,,1,,,,67,,,56,,,4,4,5-2[8:1]*-8[8:1],,,,5,,,,71,,,26,,,5V73[4:1]/3,,,,8,,8,,,,1-5[8:1]/4-8[8:1],,,,,,,,
6v1[8:1]/2-5[8:1],,,,62,,,,73,,,15,,,7V51[4:1]/3,,,,8,,8,,,,32,,,43,,,5,5,4-7[8:1]*-1[8:1],,,,4,,,,28,,,73,,,46,,3-1[8:1]/5,,4,,5-7[8:1]/3,,4,,8w4[8:1]/5,,,,,,,,
2-4[8:1]/6,,,1,2,,6,6,5,,,78,,,2,2,3v8[8:1],,4,,53,,6,6,5-2[8:1]*-8[8:1],,64,,5,,,,
7-5[8:1]/3,,,8,7,,3,3,4,,,21,,,7,7,6v1[8:1],,5,,46,,3,3,5-8[8:1],4,5,4,5,,,,
26,,2,1,2,,46,,73,,7,8,7,,53,,26,,2,1,2,,45,,2-5[8:1]/7-4[8:1],,81,,27,,,,
36,,78,,36,,21,,5,4,6,3,7,2,8,1,8b-6[8:1]*-5[8:1],,,,8b-2[8:1]*-3[8:1],,,,8bV64[4:1],,,,,,,,
1>4[8:1]*<6[8:1],,,,1,,,,5-7[8:1],,3h[8:1],,,,8h[8:1],,6-8[8:1],,2h[8:1],,,,3,4,5v2[8:1]*v8[8:1],,,,5,,,,7-1[8:1]/3,,3,,4h[8:1],,,,6-8[8:1]/5,,5,,2,,2h[8:1],,3,,3h[8:1],,4,,4h[8:1],,5-1[8:1],,2b,,2b,,,,
8<5[8:1]*>3[8:1],,,,8,,,,4-2[8:1],,6h[8:1],,,,1h[8:1],,3-1[8:1],,7h[8:1],,,,6,5,4-7[8:1]*-1[8:1],,,,4,,,,2-8[8:1]/6,,6,,5h[8:1],,,,3V17[4:1]/4,,4,,7V53[4:1],,,,3V17[4:1],,,,7,,,,5bw1[8:1],,,,5b,,,,
3>8[8:1]/7<4[8:1],,,,37,,,,5-7[8:1],,3h[8:1],,,,8h[8:1],,6-8[8:1],,2h[8:1],,,,3,4,5v2[8:1]*v8[8:1],,,,5,,,,37,,6,5,,3,4,,21,,8,,75,,3,,2<7[8:1]/4,,2,,6>3[8:1],,6,,1w5[8:1],,1,,,,,,3h[8:1]/7h[4:2],,,,5h[8:1],,,,4,,3,,2,,1>4[8:1]/8<5[8:1],,,,,,,,26,,2>5[8:1]/6<1[8:1],,,,26,,,,34,,1,,65,,8,,2,4,3,7,5,6,1h[8:7],,,,5,,5,,,,7p2[8:1],,,,,,,,
54,,6,5,7,,3,4,2,,7,8,6,,54,,3,4,3,4,2-5[8:1],,1,,82,,7,,63,,2,,
81,,7,8,6,,2,1,3,,6,5,7,,81,,2,1,2,1,3v8[8:1],,4,,53,,6,,72,,4,4,
5,,3,4,2,,6,5,7,,2,1,3,,45,,6,5,6,5,7-4[8:1],,8,,17,,2,,36,,7,,
18,,2,1,3,,7,8,6,,3,4,2,4,3,,8b<6[8:1]/1bp5[8:1],,,,1b>3[8:1]/8bq4[8:1],,,,8b<6[8:1]/1bp5[8:1],,,,,,,,43,,6,5,7,,2,1,3,,5,4,6,5,7,,2,1,2,1,3-8[8:1],,4,,53,,6,,27,,3,,45,,7,8,6,,3,4,2,,8,1,7,8,6,,3,4,3,4,2v5[8:1],,1,,82,,7,,36,,2,,
1/8h[8:1],,1,,1/3h[8:1],,1,,42,,5,4,6,5,7,,8/1h[8:1],,8,,8/6h[8:1],,8,,57,,4,5,3,4,2,,
1h[8:1]/8,,3,,8h[8:1]/1,,6,,1,8,3,6,2,7,4,5,1b-5[8:1],,,,1b>4[8:1]*<6[8:1],,,,1bw5[8:1],,,,,,,,37,
