&title=Milky Way Galaxy (SIHanatsuka Remix)
&artist=3R2
&first=1.46
&des=P4P1N002
&lv_5=13+
&lv_6=15
&inote_5=(175)
{8}
1>8[4:7],,,,,,,,,,,,,,,,
1>8[4:7],,,,,,,,,,,,,,,,
1>8[4:7],,,,,,,,,,,,,,,,
1bs5b[4:3],,,,,,,,,,,
{16}
3,5,1,,6,4,8w4[8:1],,Cf,,8x,,,,,,
3h[8:9],,,,,,,,,,
{32}
B5,B6,,,,,,,
{16}
,,,,,,1,8,2>5[8:1],,1,,2h[4:1],,,,,,
6h[8:9],,,,,,,,,,
{32}
B4,B3,,,,,,,
{16}
,,5x,,7x,8x,1x,2x,3v8[8:1],,5,,3,,,,,,
4h[8:9],,,,,,,,,,
{32}
E5,B5,,,,,,,
{16}
,,,,,,5,4,6-8[8:1],,3,,6,,,,,,
5h[8:9],,,,,,,,,,
{32}
E5,B4,,,,,,,
{16}
,,6x,,4x,3x,2x,1x,8-6-4-2[1:1],,6,,8,,,,,,C,,,,,,,,,,
{32}
E1,B1,,,,,,,
{16}
,,2x,3x,4h[4:1],,6,7,8>6[1:1],,2,,8,,,,,,C,,,,,,,,,,E1/D1,,
{16}
7,8,6,1,5,2,4-6[8:1],3,4-2[8:1],3,4x,,,,C,,,,,,
6h[8:9],,,,,,,,,,
{32}
B4,B3,,,,,,,
{16}
,,,,,,7,8,6,,3,4,2h[8:3],,,,,,
3h[8:5],,,,,,,,,,
4xh[8:4],,,,,,,,
5xh[8:4],,,,,,,,
6x<3[8:27],,,,,,,,E2,,,,,,,,E8,,,,B2,,,,B7,,,,B3,,,,B6,,,,,,,,,,,,
E5,,,,E7,,E3,,,,E1,,,,C,,,,,,
6x<3[8:28]/Cf,,,,,,,,E8,,,,,,,,E2,,,,B7,,,,B2,,,,B6,,,,B3,,,,,,,,,,,,,,,,
C,,,,E1,,,,C,,,,E5,,,,
6x<3[8:28]/Cf,,,,,,,,E4,,,,,,,,E6,,,,B3,,,,B6,,,,B2,,,,B7,,,,,,B8,E1,B1,,,,,,,,
B8,,,,B7,,,,B6,,,,B5,,,,
6xb<3b[8:22]/Cf,,,,,,,,E2,,,,,,,,E8,,,,B2,,,,B7,,,,B3,,,,B6,,,,,,,,C,,,,,,,,
5h[8:1],,,,5h[8:1],,4,6,4,7,4,8,4w8[8:1],,,,A4f,,,,,,A6/B6/B2/A2,,,,,,,,,,
C,,,,,,,,7,5,7,5,6,4,6,4,5<8[8:1],,,,,,B2/B3,,,,,,,,,,C,,,,,,
6,5,7,4,8,3,1-5[8:1],,2,,1,,,,,,A3/B3/B7/A7,,,,,,,,,,C,,,,,,,,
B1,B8,B2,B7,B3,B6,B4,,B5/A5f,,,,,,A7f/E8/E7/B7,,,,,,A3f/E3/E4/B3,,,,,,,,,,,,
A1,B1,,,,,,,
1xbqq6b[4:6]/8xbpp3b[4:6],,,,,,,,,,,,,,,,,,,,,,,,,,,,,,,,
4h[8:1],,,,4h[8:1],,,,4h[8:1],,,,4h[8:1]/B5,,,,B8/4h[8:1],,,,5,4,5,4,6,3,7,2,8,,1,,
8<5[8:1],2,8,2,8,,,,1-4[8:1],7,1,7,1,,,,2<7[8:1],1,2,1,2,,,,7v4[8:1],8,7,8,7,,,,
35,,1,,64,,8,,24,,1,,75,,8,,
{32}
7b/2b,6x/3x,5xs1[46.5#32:1]/4xz8[46.5#32:1],
,,,,,,,,,,,,,,,,,,,,,,,,,,,,,
{16}
5b/4b,,,,,,,,
{8}
6V83[4:1]/3-5[8:1],,3V16[4:1],,6pp1[8:3],,2-5[8:1],,2,,
4xw8[4:1],,4b,,,,
3V57[4:1]/7-4[8:1],,7V14[4:1],,4xqq1[8:3],,5-8[8:1],,5,,,,
7-4[8:1]/2-5[8:1],,,,1q5[4:1],,1/5q1[4:1],,1>1[2:1],,,,C,,,,
6xh[16:1]/5xh[16:1],1xh[16:1]/7xh[16:1],2xh[16:1]/3xh[16:1],
7xh[16:1]/8xh[16:1],5xh[16:1]/4xh[16:1],,
3,2b/4,,6,7/5b,,1-5[8:1]/8-4[8:1],,18,,
{24}
5xb<8[4:1]/4xb>1[4:1],,,,,,A5/A4,D6/D4,A6/A3,D7/D3,A7/A2,D8/D2,
{16}
A8f/A1,,,,
{8}
3V16[4:1]/6-4[8:1],,6V83[4:1],,3qq8[4:1],,7-4[8:1],,7,,
{24}
1/5x,2/6x,7x/3,8x/4,1,2,3,4,5,6,7,8,
{8}
1V75[4:1]/5-2[8:1],,5V31[4:1],,1pp6[8:3],,5x-2[8:1],,5b,,
8pp8[4:1]/4pp4[4:1],,8b/4b,,,7,8b/6,,3,2/4b,,,5-8[8:1]/4-1[8:1],,5b/4b,,,,
7<4[4:1],,,,3>8[4:1],,,,
6h[4:1],,5h[4:1],,4h[4:1],,3h[4:1],,
2x>7<2[4:4],,,,,,,,
7x<2>7[4:4],,,,,,,,
2x>7<2[4:4],,,,,,,,
7xb<2b[4:2],,,,,,,,
5,5,64,,3,3,24,,7,7,68,,1,1,82,,
{16}
34,,2,2,4,,65,,7,7,5,,18,,72,,
5p8[86#128:15]/4q1[86#128:15],,,,,,,,5b/4b,,,,,,,,
{12}
2h[24:3]/4h[24:3],,3h[8:1]/5h[24:3],,6xh[8:1]/4xh[24:3],,
{16}
7x,6,5,4,8x,1,2,3,
{12}
7h[24:3]/5h[24:3],,6h[8:1]/4h[24:3],,3xh[8:1]/5xh[24:3],,
{16}
2x,1,8,7,5x,4,3,2,
{12}
1h[24:3]/3h[24:3],,2h[8:1]/4h[24:3],,6xh[8:1]/5xh[24:3],,
{16}
4x,3,2,1,4x,3,2,1,
{12}
8h[24:3]/6h[24:3],,7h[8:1]/5h[24:3],,3xh[8:1]/4xh[24:3],,
{16}
5x,6,7,8,5x,6,7,8,
{12}
1h[24:3],,8h[8:1]/2h[24:3],,7xh[8:1]/3xh[24:3],,
{16}
6,5,6,5,1x,8,7,6,
{12}
8h[24:3],,1h[8:1]/7h[24:3],,6xh[8:1]/2xh[24:3],,
{16}
3,4,3,4,8x,1,2,3,
{12}
5h[24:3]/4h[24:3],,1h[24:3]/7h[24:3],,2h[24:3]/4h[24:3],,
{16}
7x,8,6x,1,7x,8,5,2,
{12}
6h[24:3],,8h[24:3]/2h[24:3],,7h[24:3]/5h[24:3],,
{16}
2x,1,3x,8,2x,1,4,7,
{24}
2,8xh[24:3],,,1,7xh[24:3],,,8,6xh[24:3],,,
{16}
3x,5,3x,5,2x,1,2x,1,
{24}
2,8xh[24:3],,,1,7xh[24:3],,,8,6xh[24:3],,,
{16}
7x,8,1,2,5x,6,7,8,
{24}
3,5xh[24:3],,,2,4xh[24:3],,,1,3xh[24:3],,,
{16}
4x,5,6,7,1x,2,3,4,
{24}
6,4xh[24:3],,,7,5xh[24:3],,,8,6xh[24:3],,,
{16}
5x,4,3,2,8x,7,6,5,
{12}
4h[48:5]/3h[48:5],,5h[48:5]/4h[48:5],,6h[48:5]/5h[48:5],,
{16}
7x,8,6,2x,1,3,5x,4,
{12}
5h[48:5]/6h[48:5],,4h[48:5]/5h[48:5],,3h[48:5]/4h[48:5],,
{16}
2x,1,3,7x,8,6,4x,5,
{12}
6h[48:5]/3h[48:5],,7h[48:5]/2h[48:5],,1h[48:5]/8h[48:5],,
{16}
7x,1,5x,3,8x,2,6x,4,Chf[2:1],,,,,,,,,,,,,,,,
{8}
1<6[8:1],2,1/3,,4>1[8:1],5,6/4,,7<4[8:1],8,1/7,,2<7[8:1],3,2/4,,
8>3[8:1],7,8/6,,5<8[8:1],4,3/5,,2>5[8:1],1,8/2,,7>2[8:1],6,7/5,,
2<7[8:1],3,2/4,,5>2[8:1],6,7/5,,8<5[8:1],1,2/8,,3>8[8:1],4,3/5,,
1>4[8:1],8,1/7,,6<1[8:1],5,4/6,,3<6[8:1],2,1/3,,8h[2:1],,4h[4:1],,
{32}
5,6,7,8,1,2,3,4,
{8}
5/Cf,,1<6[8:1],2,1/E3,E4,4>1[8:1],5,E6/4,E7,7<4[8:1],8,E1/7,E2,2<7[8:1],3,2/E4,E5,
8>3[8:1],7,8/E7,E6,5<8[8:1],4,E4/5,E3,2>5[8:1],1,E1/2,E8,7>2[8:1],6,7/E6,E5,
1<6[8:1],2,1/E3,E4,4>1[8:1],5,E6/4,E7,7<4[8:1],8,E1/7,E2,
{16}
3b,4,3,4,
{24}
2b,1,8,4b,5,6,
{16}
2b,1,2,1,
{24}
2b,3,4,8b,7,6,
{32}
5x/1b>8b[4:3],,,,,,,,,,,,,,,,,,,,,,,,,,,,,,,,C,
&inote_6=(175)
{8}
Ch[8:58],,,,,,,,,
,,,,,,,,,,,,,,,,,
,,,,,,,,,,,,,,,,,
,,,,,,,,,,,,,1xh,1xh,1xh,
{16}
8,2,8,2,7,3,4b-2-5-1[8:5]/6b,,4,,7b,,,,,,8p5b[8:3],,,,,,,,,,Cf,,,,,,,,,,
7,4,5z1[8:5],2,6,4,5b/3b,,,,,,1-5b[8:3],,,,,,,,,,Cf,,,,,,
6,5,6,5,6,4,5b-2-6-3[8:5],,4,,5b,,,,,,3q4b[8:3],,,,,,,,,,Cf,,,,,,,,
4,3,2,1,8bs4[8:5],,8/7,,8b/7,,,,,,
6-2-7b[8:3],,,,,,,,,,,,,,,,
1,7,1,7,2,6,5b-7-4-8[8:5]/3b,,5,,2b,,,,,,1q4b[8:3],,,,,,,,,,Cf,,,,,,,,,,
1,2,3s7[8:5],4/2,3,4,5b/3b,,,,,,8-4b[8:3],,,,,,,,,,Cf,,,,,,
2,8,2,8,3,7,4b-1-5-8[8:5],,5,,4b,,,,,,7p5b[8:3],,,,,,,,,,Cf,,,,,,,,
1,28,37,46,5b-1-3-7[8:5],,4h[32:1]/7h[32:1],,4h[32:1]/5b,,,,,,
1qq4b[8:3],,,,,,,,,,
6,,,,,,,,7,,,,,,,,8b-4[8:29],,,,,,,,1,,,,,,2h[16:1],,2,,,,3,,,,4,,,,5h[32:1],,,,6,,,,
,,,,,,,,6,,,,7h[16:1],,7,,,,8b-4b[4:1],,,,8b,,,,,,
1>8[8:29],,7,,,,7,,6,,,,6,,5,,,,5,,4,,,,3h[16:1],,3,,
2,,6h[16:1],,5h[16:1],,5<8[8:12],,7,,6,,5,6,3,6,4,
{32}
5,4,5,4,3,6,4,5,
{16}
,
,,,,2,,,,,,1,,,,
4>5[8:29],,6,,,,6,,7,,,,7,,8,,,,8,,1,,,,7h[16:1],,2,,
3,,7h[16:1],,8h[16:1],,8<5[8:12],,6,,7,,8,7,2,7,1,
{32}
8,1,8,1,2,7,2,7,
{16}
,
,,,,2,,,,,,1,,,,
1>8[8:29],,7,,,,7,,6,,,,6,,5,,,,5,,4,,,,6h[16:1],,3,,
2,,6h[16:1],,5h[16:1],,5<8[8:12],,7,,6,,5,6,3,6,4,
{32}
5,4,5,4,5,4,5,4,5,4,5,4,3,2,1,,,,
{16}
2h[16:1],,2,,3h[16:1],,3,,1h[16:1],,
{32}
1b,B1,Cf,B5,
{16}
,,,,8-5b[8:3],,,,,,,,,,Ch[8:8]/B2/B3,,,,,,,,,,
B1,B8,B2,B7,B3,B6,B4/B5,,,,,,
{32}
1b,B1,Cf,B5,
{16}
,,,,,,,,C,,,,,,6,7,8,1,2,3,4b-1-5-8[8:5],,5,,4b,,,,,,
{32}
8b,A7,D7f,A6,
{16}
,,,,,,,,C,,,,,,,,
1,2,3,4,5b-1-3v6[8:5],,4h[32:1]/7h[32:1],,4h[32:1]/5b,,,,,,
3h[8:8],,,,,,7h[8:5],,,,,,,,,,,
{32}
3pp1[4:1]/7pp5[4:1],26,51,84,
{16}
,,,,,,,Cf,,,,1h[8:7],,,,5,,,,5,,,,5,,,,
8h[8:5]/4,,,,4,,,,4,,,,7h[8:5]/3,,,,3,,,,3,,,,73,,,,
82,,,,1,,1,8,2,7,3,6,4,,5,,5,4,5,4,5b,3,4,2,5,1,6,8,7b,1,2,3,4,7,6,5,4,8b,7,6,
5,4/8,3/7,2/6,1b/5,4,3,2,1,,12,,73,,53,,68,,72,,65,,28,,
5<6>5<6>5<6>5<6>5<6>5<6>5<6>5<8[32:26]/4>3<4>3<4>3<4>3<4>3<4>3<4>3<4>1[32:26],
,,,,,,,,,,,,,,
{32}
,A6/A3,A7/A2,A1/A8f,
{16}
,,,,,,
{32}
8<4[8:1],7<3[8:1],6>2[8:1],5>1[8:1],,,,,8b,7,6,5,,,,,,,
7,6,5,2,3,4,6,5,4/1b,2,3,4,8,7,6,5,4b-8-6[4:1],,,,,,,,4b/6-2-4-8b[8:3],,
,,,,,,A7,E7,D7,B6,A6,E6,D6,B5,A5,E5,D5,B4,A4,,,,
1>5[8:1],2>6[8:1],3<7[8:1],4<8[8:1],,,,,1b,2,3,4,,,,,,,,,
1b/2b,,,,6b/5b,,,,,,,,
1,2,3,8,7,6,1,2,3-5-1-6[8:3],7,6,5,1,2,3,6,5,,,,,,,,,,,,,,
,,,1>5[8:1],2>6[8:1],3<7[8:1],4<8[8:1],,,,,1b,2x,3x,4x,
5x,6x,7x,8x,6,5,4,3,1,2,3,4,7,6-1-7-3[8:3],5,2,3,4,1,8,7,6b,,,,,,,,,,,,,,
1,,,,1,,,,1,,,,1,,,,16,,,,,,,,7,,,,7,,,,7,,,,7,,,,74,,,,,,,,
1-6[8:1],,,,,,,,
7-4[8:1],,,,,,,,
5b-2[8:1],,,,,,,,A6,B6,C,B1,A1,,
8<4[8:1],7<3[8:1],6>2[8:1],5>1[8:1],,,,,8b,7,6,5,,,,,,,
1,2,3,8,7,6,2,3,4/7b,6,5,4,2,3,4,5,8b-6-2[4:1],,,,,,,,8b/2-8-4b[8:3],,
,,,,,,A3/B3,,E3/D3,,A2/B2,,E2/D2,,A1/B1,,E1/D1,,A8/B8,,,,
1>5[8:1],2>6[8:1],3<7[8:1],4<8[8:1],,,,,1b,2,3,4,,,,,,,,,
1b/4b,,,,6b/3b,,,,,,,,
6,7,8,1,4,3,2,1,7-5-1-6[8:3],6,5,4,1,2,3/7,6,5,,,,,,,,,,,,,,
,,,5<1[8:1],6<2[8:1],7>3[8:1],8>4[8:1],,,,,5b,6x,7x,8x,
1x,2x,3x,4x,8,7,6,5,1,2,3,4,7,6b-1-3-7b[8:3],5,4,2,3,4,5/8,7,6b,,,,,,,,,,,,
8,,,,1,,,,2,,,,3,,,,46,,,,,,,,,,5,,,,6,,,,7,,,,8,,,,14,,,,,,,,
1h/2h,,,,,,,,
8h/3h,,,,,,,,
7h/3h,,,,,,,,
4h[8:4],,,,8,,,,8,,,,8,,,,
8,,4,,8,,4,,8,,,,,,,,
3h[8:4]/7,,,,7,,,,7,,,,7,,,,
7,,3,,7,,3,,7,,,,,,,,
2h[8:4]/6,,,,6,,,,6,,,,6,,,,
6,,2,,6,,2,,6,,,,,,,,
1,,2,,8,,3,,7,,4,,6,,5,,4,,5,,3,,
6b,,3,,7,,4,,8,,1b,,5,,8,,4,,7,,3,,6,,2,,5b,,1,,
4,,8,,3,,8,,4,,7,,3b,,6,,2,,5,,1,,6,,1,,7,,1b,,8,,
2,,7,,3b,,1,,2,,1,,2,,1,,3b,,8,,1,,8,,1,,8,,3b,,7,,8,,7,,
1bw5[100#16:1],,,,,,,,,,,,,,
1b,,Cf,,,,,,,,,,,,,,,
8b,1,2,3,,,8b,1,2,3,,,8b,1,2,3,,6,,5,,7,,4,,6,,5,,8,,3,,
7b,6,5,4,,,7b,6,5,4,,,7b,6,5,4,,62,,51,,48,,37,,6,,5,,4,,
8b,1,2,3,,,8b,1,2,3,,,8b,1,2,3,,5,,5,,3,,3,,7,,7,,1,,1,,
7b,6,5,4,,,7b,6,5,4,,,7b,6,5,4,,3,,4,,2,,6,,5,,7,,8,,
1b,2,3,4,,,2b,3,4,5,,,3b,4,5,6,,1,,1,,1,,1,,2,,8,,3,,4,,
8b,7,6,5,,,7b,6,5,4,,,6b,5,4,3,,7,,8,,1,,25,,3,,4,,58,,
1b,2,3,4,,,2b,3,4,5,,,3b,4,5,6,,8,,4,,2,,6,,8,,4,,2,,6,,
8b,7,6,5,,,7b,6,5,4,,,6b,5,4,3,,6,,7,,8/3,,2,,1/5,,6,,7,,
8hb[16:1]/2b,3,4,5,,,8b/2hb[16:1],7,6,5,,,2b/8hb[16:1],3,4,5,,
6,,5,,6,,3,,4,,3,,7,,5,,
2hb[16:1]/8b,7,6,5,,,2b/8hb[16:1],3,4,5,,,7b/1hb[16:1],6,5,4,,
2,,3,,4,,3,,2,,3,,4,,
7hb[16:1]/1b,2,3,4,,,7b/1hb[16:1],6,5,4,,,2b/8hb[16:1],3,4,5,,
1,,2,,3,,4,,51,,62,,73,,84,,
3hb[16:1]/1b,8,7,6,,,2b/8hb[16:1],3,4,5,,,7b/1hb[16:1],6,5,4,,
2,,2,,4,,4,,6,,6,,8,,
3b/8h[16:1],4,5,,,,3b/8h[16:1],4,5,,,,3b/8h[16:1],4,5,,,
7,,8,,4,,3,,7,,8,,4,,3,,
6b/1h[16:1],5,4,,,,6b/1h[16:1],5,4,,,,6b/1h[16:1],5,4,,,
12,,12,,3,,74,,74,,6,,5,,
3b/8h[16:1],4,5,,,,3b/8h[16:1],4,5,,,,3b/8h[16:1],4,5,,,
5,,6,,4,,7,,1,2,1,2,1,2,1,2,
1bw5[100#16:1],,,,,,,,,,,,,,
1b,,Cf,,,,,,,,,,,,,,,,
7-4[8:1]/3,,,,5,,,,7/3>8[8:1],,,,,,,,7-4[8:1]/3,,,,,,,,7/3>8[8:1],,,,,,,,
7-4[8:1]/3,,,,,,,,7/3>8[8:1],,,,,,,,7-4[8:1]/3,,,,,,,,7/3>8[8:1],,,,1,,,,
3b/7,,6,,5,,84,,
2-5[8:1]/6,,,,4,,,,2/6<1[8:1],,,,,,,,2-5[8:1]/6,,,,,,,,2/6<1[8:1],,,,,,,,
2-5[8:1]/6,,,,,,,,2/6<1[8:1],,,,,,,,2-5[8:1]/6,,,,,,,,2/6<1[8:1],,,,8,,,,
6b/2,,3,,4,,15,,
7-5[8:1]/3,,,,5,,,,7/3>8[8:1],,,,,,,,7-5[8:1]/3,,,,,,,,7/3>8[8:1],,,,,,,,
7-5[8:1]/3,,,,,,,,7/3>8[8:1],,,,,,,,7-5[8:1]/3,,,,5,,,,7/3>8[8:1],,,,1,,,,
3b/7,,6,,5,,84,,
2-4[8:1]/6,,,,4,,,,2/6<1[8:1],,,,,,,,2-4[8:1]/6,,,,,,,,6h[8:3]/2,,,,,,,,
2h[8:1],,,,,,,,
2/6-3[8:1],,,,6,,,,4-1[8:1]/6,,,,4,,,,4/2-7[8:1],,,,2,,,,8-5[8:1]/2,,,,8,,,,
6-1[8:1]/8,,,,2,,,,3-8[8:1]/6,,,,1,,,,7-5-3[8:1]/3,,,,6,,,,2>5[8:1]/7,,,,4,,,,
7v4[8:1]/2,,,,8,,,,7/3-8[8:1],,,,3,,,,3/6-1[8:1],,,,7,,,,2-5[8:1]/6,,,,1,,,,
2/7-3[8:1],,,,5,,,,2-4[8:1]/7,,,,1,,,,2/6<1[8:1],,,,3,,,,2-4-6[8:1]/6,,,,3,,,,
7-2[8:1]/2,,,,6,,,,3-5-7[8:1]/7,,,,4,,,,8<5[8:1]/3,,,,6,,,,8-6[8:1]/4,,,,1,,,,
8/4-1[8:1],,,,6,,,,8-5[8:1]/4,,,,2,,,,8/4>1[8:1],,,,6,,,,4/8,,,,2,,,,
5b,6,7,8,3b/1,,,,1b,2,3,4,7b/5,,,,4b,5,6,7,2b/8,,,,1b/5b,84,73,62,15,,,,
1xb,5xb,1xb,5xb,1xb,5xb,1xb,5xb,1xb,5xb,1xb,5xb,1xb,5xb,1xb,5xb,1xb,5xb,1xb,5xb,
1xb,5xb,1xb,5xb,1xb,5xb,1xb,5xb,1xb,E2/E6,B6/B2,B7/B3,B4/B8,
