&title=ももいろの鍵
&artist=いよわ/MORE MORE JUMP
&first=0.05
&des=GBLwan
&lv_5=13+
&inote_5=(165){4},,,,6/3>6[8:3],
{8}6,5,4q8[4:1],,,1,
{4}2>6[8:3],{8}7,8,1p5[4:1],,,3,
{4}4-2[8:1],4-6[8:1],4>1[4:1],{8}7,6,
{2}5<2[8:5],{4}3,4,
5bV31[8:3],{8}8,7,6<8v5[8:3],,,3,
{4}4>1-7[8:3],{8}7,6,5>3[8:3],,,1,
{4}8>3[8:1],8<5[16:4],8,{8}2,3,
5b/4bw8b[2:1],,,,,,,,6/3,,
{12}B8,B7,B6,E3,E4,E5,E8,E7,E6,C,,,E4,E3,E2,E7,E8,E1,E5,E4,E3,C,,,,,,B6/B3,,,,,,
{32},A2/A7/D7/D3,,,,,,,,,,,,,,,{8}5,6,7h[4:1],5,
{4}6>2[16:3],6/8-6[8:1]*-4[8:1],{8}8,,,3/5,
{4}4<8[16:3],4/2-4[8:1]*-6[8:1],{8}2,,,7/5,
{4}6h[4:1],4qq5[2:1],46,{8}8,7,
{2}6h[2:1],{8}3>8[4:1],7,8q4[4:1],6,
{4}7qq5[4:1],{8}7,3,{4}2h[4:1],5<8-4[2:1],
53,{8}3,2,1h[2:1],,,3,
{4}4pp7[2:1],42,3>8[4:1],{8}3,6,
{1}5v8<4[4:3],
{4},2-5[8:1]/5-2[8:1],{8}2-8-4[8:3],,,7,
{4}6-8>2[8:3],{8}6,3,{2}4h[4:1],
{4}4/8V64[2:1],8/3,2-8-4[8:2],{8}2,5,
6h[8:6],,,E1,E2,E3,E4,,
{4}3/8<4[8:3],{8}E4,E3,E2,,,6/3,
{4}7/1>5[8:3],{8}E6,E7,E8,,,3/5,
{4}6-2[8:1],5-1[8:1],4-8[8:1],{8}3,2,
{1}1pp5[2:1]/7pp5[2:1],
{12}3/7,6,5,2,3,4,{2}5-8[8:1]*-2[8:1],
{12}7,6,5,3,,3,{6}5,6h[3:1],{12},,4,
4,5h[3:1],3q4[8:3],,,{4}3,7x<4[8:1],
2/7>2[8:1],7,{2}5v8[8:1]/3v8[8:1],
{12}2,2,7,3,3,6,E2,E3,E4,E5,,,2,
2,5h[8:2],3,3,,1-6[6:1],,{3}12,
{12}4x,3x/5x,2x/6x,7-5[8:1]/1-5[8:1],,,{4}7-3[8:1]/1-3[8:1],1/7,
4x/5x,6/3,7/2,{8}8-4[8:1]/1-5[8:1],2/7,
{4}8b/1b>6[8:3],{8}6,7,{4}8-5[8:1]*-4[8:1],8,
6x/2>6[8:3],{8}7,8,{4}1-6[8:1]*-5[8:1],1,
7x/3<6[4:1],{8}7,8,1-6[8:1],4-1[8:1],1,4,
{4}5<1[8:3],{8}3,4,{2}5w1[8:1],
{6}4h[12:1]/6h[12:1],3h[12:1]/8h[12:1],{12}1/2,3,{6}4h[12:1]/5h[12:1],6h[12:1]/2h[12:1],{12}7/1,6,
{6}3h[12:1]/5h[12:1],7h[12:1]/4h[12:1],{12}6/3,2,{6}1h[12:1]/5h[12:1],3h[12:1]/4h[12:1],{12}5/1,6,
{4}3/7-3[8:1],6-2[8:1],5-1[8:1],{8}4,3,
{16}2b-5[8:1],,,7b-3[8:1],,,{8}1bw5b[16:3],,,,3x,
{4}2b/8b<3[8:3],{8}3,2,1-4[8:1]*-5[8:1],8,{4}1,
3x/7<3[8:3],{8}2,1,8-3[8:1]*-4[8:1],7,{4}8,
2x/6>3[4:1],{8}2,1,8-3[8:1],5-8[8:1],8,5,
{4}4>8[8:3],{8}6,5,{2}4w8[8:1],
{6}5h[12:1]/3h[12:1],6h[12:1]/1h[12:1],{12}8/7,6,{6}5h[12:1]/4h[12:1],3h[12:1]/7h[12:1],{12}2/8,3,
{6}6h[12:1]/4h[12:1],2h[12:1]/5h[12:1],{12}3/6,7,{6}8h[12:1]/4h[12:1],6h[12:1]/5h[12:1],{12}4/8,3,
{4}6/2-6[8:1],5-8[8:1],{16}4v1[8:1],,,5,4,,6,,
{4}7p5[2:1]/2q4[2:1],,,,
{4}4/6v1[8:1],6/4h[4:1],{16}8,7,{8}6,4,2/5,
{16}7h[8:3],,,5,,,{8}4,{4}2q7[4:1],2/7,
{8}6h[8:1],{16}1,2,{8}3,4/7,6,3/5,2,1/8,
{1}7s3[2:1]/2z6[2:1],
{6}4/5h[12:1],{12}3h[12:1],4,5h[12:1],4,6h[12:1],5,7h[12:1],4,6h[12:1],3,
{6}2x/5b,{12}1h[12:1],5x,2h[12:1],5x,3h[12:1],5x,4h[12:1],5x,6h[12:1],5x,
{6}7b-3[8:1],8,8,1b-6[8:1],{12}2,,2,,{6}3b-8[8:1],4b,5b,6b-1[8:1],5b,4b,
{4}4bV28-6-4>4[4:11],{8}B6,C,{2}B2,
{4}B1,{8}B6,B5,B4,,,B3,
{4}B6,E8,C,{8}B1,C,
{2}B5,{4}6/4h[2:1],6,
5<8[4:1],{8}4,3,2h[8:3],,,3,
{4}4<7[8:3],{8}4,3,2,,,8/2,
{4}7-4[4:1],7/4-6-1[8:3],2,{8}2,3,
4h[8:3],,5,5,5,45,36,27,
18,27,36,27,{16}1,8,2,7,1-5[8:1],,,,
1b/2,,{16}3,4,2v4>1[8:3],,5,,26,,7,,8,,,,
8/7,,{16}6,5,7v5<8[8:3],,4,,73,,2,,1,,,,
1/2,,{16}3,4,2v4>1[8:3],,5,,26,,7,,6,,5,,
4<7[8:1]*-7[8:1],,,,4>1[8:1]*-1[8:1],,,,4w8[8:1],,,,4b,,,,
{6}4h[12:1]/6h[12:1],3h[12:1]/8h[12:1],{12}1/2,3,{6}4h[12:1]/5h[12:1],6h[12:1]/2h[12:1],{12}7/1,6,
{6}3h[12:1]/5h[12:1],7h[12:1]/4h[12:1],{12}6/3,2,{6}1h[12:1]/5h[12:1],3h[12:1]/4h[12:1],{12}5/1,6,
{4}4/7q3[8:1],4v1[8:1]/7,4/6,{32}7x,6,5,4,3,2,1,8,
{16}5b/7b,,,4b/2b,,,1b-4b[8:1]/8bp6[16:3],,,,1b,,,,
3x,,2b/5b,,3,4,2-4-1-5[8:3]/5,,1,,25,,6,,7,,8,,
7/3,,6,5,7-5-8-4[8:3]/4,,8,,74,,3,,2,,1,,
25,,3,4,25,,6,5,47,,1,8,2,7,3,6,
{4}4>1[8:1],5/4pp7b[8:3],4/8b,2,
{12}1-5[16:1],,7-4[16:1],,3,3,2-6[16:1],,8p4[16:1],,3,3,
3v8[16:1],,5q1[16:1],,2,2,3-7[16:1],,8-3[16:1],,5,,
{4}5b<5b[8:12]*-2[8:1],5,5-8[8:1],5,B1,C,B5,,
{6}8<4[8:5],1,2,3h[6:2],,,1>4b[8:4],8,7,6,5,6,
{8}78,,12,,36,,27,45,1b/8b,,
&inote_6=(165){4},,,,6/3>6[8:3],
{8}6,5,4q8[4:1],,,1,
{4}2>6[8:3],{8}7,8,1p5[4:1],,,3,
{4}4-2[8:1],4-6[8:1],4>1[4:1],{8}7,6,
{2}5<2[8:5],{4}3,4,
5bV31[8:3],{8}8,7,6<8v5[8:3],,,3,
{4}4>1-7[8:3],{8}7,6,5>3[8:3],,,1,
{4}8>3[8:1],8<5[16:5],8,{8}2,3,
5b/4bw8b[2:1],,,,,,,,
6/3,,
{12}B8,B7,B6,E3,E4,E5,E8,E7,E6,C,,,E4,E3,E2,E7,E8,E1,E5,E4,E3,C,,,,,,B6/B3,,,,,,
{32},A2/A7/D7/D3,,,,,,,,,,,,,,,{8}5,6,7h[4:1],5,
{4}6>1[4:1],6/8-6[8:1]*-4[8:1],{8}8,,,5/3,
{4}4<1[4:1],4/2-4[8:1]*-6[8:1],{8}2,,,7/5,
{4}4h[4:1],3>8[4:1],8<5[4:1],{8}4,3,
{2}2h[4:1],{8}6<1[4:1],2,1p5[4:1],3,
{4}2v4[4:1],{8}2,6,{4}7h[4:1],4>1-5[2:1],
64,{8}6,7,8h[2:1],,,4,
5<1[4:1],,4,,{8}4<7[4:1],,2,3,
{1}4b>6[4:3],
{4},2-5[8:1]/5-2[8:1],{8}2-8-4[2:1],,,7,
{4}6-1-3[2:1],{8}6,5,4,,,4v7[4:1]*v1[4:1],
3,4,,,,,,,,,,,,,,,{4}8<4[8:3],
{8}E5,E3,E1,,,5,
{4}3,{8}2v5[4:1],6,5>7[8:3],,,7,
{4}6-2[8:1],5-1[8:1],4-8[8:1],2>1[2:1],
{12},,,,,,,,,,,,4/7,
6,5,2,3,4,{2}5-8[8:1]*-2[8:1],
{12}1,2,3,5,,5,{6}4,3h[3:1],{12},,4,
5,6h[3:1],3q4[8:3],,,{4}3,7<5>4[8:1],
2/7>2[8:1],7,{2}5v8[8:1]/3v8[8:1],
{12}2,2,7,3,3,8,{24},E8,,E7,,E6,,E5,,{8}E4,
{12}2,2,5h[4:1],3,3,7-4[6:1]*-3[6:1],,,{3}7,
{12}5x,6x/4x,7x/3x,2-4[8:1]/8-4[8:1],,,{4}2-6[8:1]/8-6[8:1],8/2,
4/5,6/3,7/2,{8}8-4[8:1]/1-5[8:1],2/7,
{4}8b/1b>6[8:3],{8}6,7,{4}8-5[8:1]*-4[8:1],8,
6/2>6[8:3],{8}7,8,{4}1-6[8:1]*-5[8:1],1,
7/3<6[4:1],{8}7,8,1-6[8:1],4-1[8:1],1,4,
{4}5<1[8:3],{8}3,4,{2}5w1[8:1],
{6}4h[12:1]/6h[12:1],3h[12:1]/8h[12:1],{12}1/2,3,{6}4h[12:1]/5h[12:1],6h[12:1]/2h[12:1],{12}7/1,2,
{6}3h[12:1]/5h[12:1],7h[12:1]/4h[12:1],{12}6/3,2,{6}1h[12:1]/5h[12:1],3h[12:1]/4h[12:1],{12}5/1,6,
{4}3/7-3[8:1],6-2[8:1],5-1[8:1],{8}4,3,
{16}2b-5[8:1],,,7b-3[8:1],,,{8}1bw5b[16:3],,,,3x,
{4}2b/8b<3[8:3],{8}3,2,1-4[8:1]*-5[8:1],8,{4}1,
3/7<3[8:3],{8}2,1,8-3[8:1]*-4[8:1],7,{4}8,
2/6>3[4:1],{8}2,1,8-3[8:1],5-8[8:1],8,5,
{4}4>8[8:3],{8}6,5,{2}4w8[8:1],
{6}5h[12:1]/3h[12:1],6h[12:1]/1h[12:1],{12}8/7,6,{6}5h[12:1]/4h[12:1],3h[12:1]/7h[12:1],{12}2/8,3,
{6}6h[12:1]/4h[12:1],2h[12:1]/5h[12:1],{12}3/6,7,{6}8h[12:1]/4h[12:1],6h[12:1]/5h[12:1],{12}4/8,3,
{4}6/2-6[8:1],5-8[8:1],{16}4v1[8:1],,,5,4,,6,,
7b>6[16:8],,,,3,,,,4,,,,1,2,3,4,5b/8b,
{1},,,,,,,,,,,,,,,,,,,,,,,,,,{8}8,
8,{4}8,{1},,,,,,,,,,,{4},{12}5/1b,
2,3,
8/4,5,6,3/7,8,1,{6}6/2bx,{12},,4/8b,7,
6,5/1,4,3,2/6,1,8,3/7,6,5,,,{4}2-4[8:1]*-6[8:1],
2,5/7,7>5[8:5]/5>7[8:5],
{8},,,,,,,6x,
{4}5b/3b-8-5[8:3],{8}3,5,{4}6V82[8:1],6,
3/7<3[8:3],{8}2,1,8-3[8:1]*-4[8:1],7,{4}8,
2/6>3[4:1],{8}2,1,8-3[8:1],5-8[8:1],8,5,
{4}4>8[8:3],{8}6,5,{2}4w8[8:1],
{6}5h[12:1]/3h[12:1],6h[12:1]/1h[12:1],{12}8/7,6,{6}5h[12:1]/4h[12:1],3h[12:1]/7h[12:1],{12}2/8,7,
{6}6h[12:1]/4h[12:1],2h[12:1]/5h[12:1],{12}3/6,7,{6}8h[12:1]/4h[12:1],6h[12:1]/5h[12:1],{12},,,,,,,,{4}5/7,
7>5[8:5]/5>7[8:5],
{8},,,,,,,6,
{24}7h[4:1],,,,,,,8,1,2,{12}3,{16}5v2[8:1],6,5,6,{4}5,
6h[4:1],3,{2}4h[4:1],
{8},,,,,,,,,,,,,,,,7bq3[8:1],
2b-6[8:1],{4}7b-1[8:1],{2}7b-4[8:1],
{8},,,,,,,,7b,
6b,,3b,,,,,,,,,,,,,{1}6<1>2v4[1:3],
{2},,,,,4v7[1:1]*v1[1:1],
{8},,,,,,,6,
{4}6,{8}6-2[4:1],6,6,,,6h[8:7]/3h[8:7],
,,,,,,,7/2,
8/1,8/1,8/1,8/1,8/1,8/1,{4}8/1,
{8}8p4[8:1]/4p8[8:1],,,,,,,2-6[8:1],
5,2-4[8:1],4V68-4[8:3],6,{1},,,,,,,,,,,,,,,,,{4},,,{8},{16}8,
6,7,1,3,2,{4}8z4[8:1],
E
