&title=有明/Ariake
&artist=SIINCA
&first=0
&des=伍舟之雨 vs 雾生七海
&lv_5=14
&lv_6=14
&inote_5=(190)
{1},
{8}2,4,3,5h[8:3],,1,1,,3,5,4,6h[8:3],,2,2,,4,6,5,7h[8:3],,3,3,,5,7,6,8h[8:3],,
4,4<1[8:6],,,,3,3,,2,2,,5>8[8:6],,6,6,,7,7,,7V51[8:6],,,,,,,,3>5[8:5],,,,,,,,
{8}2h[8:2],,8,1,7,8,6,6,1h[8:2],,7,8,6,7,5,5,8h[8:2],,6,7,5,6,4,4,7h[8:2],,5,6,4,5,3,,
{8}2h[8:1],4h[8:1],3h[8:1],5h[8:1],4h[8:1],6h[8:1],5,5,7h[8:1],5h[8:1],6h[8:1],4h[8:1],5h[8:1],3h[8:1],4,4,
{8}1h[8:1],4h[8:1],2h[8:1],5h[8:1],3h[8:1],6h[8:1],4,4,8h[8:1],7h[8:1],6h[8:1],5h[8:1],4h[8:1],3h[8:1],2h[8:1],1,
{4}1b-5[4:4]/8b<1[4:8],,,,,,,,8<1[4:6],,,,8-4[4:2],,,,
{8}8h[8:2],7,,6h[8:2],1,,2h[8:2],5,,4h[8:2],3,,2v5[8:1]/5<8[8:1],,,,
{8}1h[8:2],2h[8:1],,3h[8:2],8h[8:1],,7h[8:2],4h[8:1],,5h[8:2],6h[8:1],,7/4-8[8:1],,4b/2b,,
{8}3h[8:2],1,8,2h[8:2],8,7,1h[8:2],7,6,8h[8:2],6,5,7V13[16:3],5,5,,
{8}6h[8:2],8,1,7h[8:2],1,2,8h[8:2],2,3,1h[8:2],3,4,1-6[8:1],1,2,2,
{8}3h[8:2],4,6,2h[8:2],4,6,1h[8:2],4,6,8h[8:2],4,6,8>3[8:1],8,6,,
{8}6h[8:2],5,3,7h[8:2],5,3,8h[8:2],5,3,1h[8:2],5,3,1<6[8:1],2,3,4,
{16}3/5-1[8:1],,,,58,,,7,7,,26,,3,4,,,
{16}6/4-8[8:1],,,,41,,,2,,7,73,,6,5,,,
{16}3/5-1[8:1],,,,58,,,7,,2,26,,3,4,,,
{24}6,7,8h[24:4],,,,2,3,4,,,,
{16}5,1,4,8,3,7,2,6,
{8}1-5[8:1],1,8,7,6-2[8:1],6,5,4,3-6[8:1],3,8-5[8:1],8,1-4[8:1],1,7,7,5,46,37,28,
{16}1,1,1,1,1s5[8:11],1,1,1,,,,,,,,,,,,,,,,,1-5[8:1]*-5[8:1],,,,1,,,,
{16}3h/7h,4h,,2h/6h,5h,,3h/7h,8h,,2h/6h,1h,,1h/8h,,2h/7h,,3h/6h,,,2h/5h,3h,,4h/7h,6h,,1h/5h,2h,,4h/8h,,3h/6h,,2h/7h,1h,,3h/6h,5h,,2h/7h,8h,,,3h/6h,,4h,,1V37[8:2]/8V62[8:2],1h/8h,,,,,,,,,
{8}1h[8:1],5h[8:1],4h[8:1],8h[8:1],1h[8:2],,6<1[8:1],1-5[8:1],,2,2V48[8:2],,7,7>5[8:2],,3,3h[8:2],,6V47[8:2],4,2h[8:2],,,2/8h[8:2],,,1s5[8:3]/6v1[8:3],,,,,,
{16}3b/7b,,,,8h[8:1],,5h[8:1],,6h[8:1],,1v7[8:1],,,,8,,8h[8:1],,5h[8:1],,6h[8:1],,1,,25,,6,,4/8-4[8:1],,,,
{16}1b/8b,,,,1h[8:1],,4h[8:1],,3h[8:1],,8v6[8:1],,,,1,,1,,7,,
{24}2,3,4,52,3,4,5/1w5[8:1],,,,,,1b,,,,,,
{16}3b/7b,,,,8h[8:1],,5h[8:1],,6h[8:1],,1v7[8:1],,,,8,,8h[8:1],,5h[8:1],,6h[8:1],,1,,25,,6,,4-8[8:1]/8-4[8:1],,,,
{8}8/4>5[8:12],,6h[8:1],,5h[8:1],,4h[8:1],,3p5[8:4],,,,,,,,
{8}25,3,4,4-8[8:2]/8,,7,6,5-1[8:2],,2,3,4-8[8:2],,7>2[8:2],6,,
{8}5,5,3,4V28[8:2],,6,5,4V68[8:2],1,2,3,4h[8:2],1,2,3,4,1b/5b<8[8:2],,,,1,,
{8}3-8[8:1]/8,4,,7,61,5>8[8:2]*p8[8:2],,,,,
{8}7h[4:3]/6h[4:3],,,,,,,,
{16}18,,
{24}2,7,3,6,,,45,,,4,3,2,5,6,7,
{16}1b/8b,,1b/8b,,
{16}35,,7,8,7,,16,,2,1,3,8,4,,56,,4,3,2,1,4,3,2,1,
{16}8V64[16:2],,,,4,3,2,1,8,,6,5,7,,48,,1,8,7,6,1,8,7,6,
{16}8h[16:1]/5h[16:1],,8h[16:1]/4h[16:1],,8h[16:1]/3h[16:1],,8h[16:1]/2h[16:1],,2h[16:1]/7h[16:1],,2h[16:1]/6h[16:1],,2h[16:1]/5h[16:1],,2h[16:1]/4h[16:1],,
{16}2b-6[8:1],,3,1,2,,8,,5,4,3,2,5,4,3,2,1h[16:1]/4h[16:1],,8h[16:1]/3h[16:1],,7h[16:1]/2h[16:1],,6h[16:1]/1h[16:1],,8h[16:1]/5h[16:1],,5h[16:1]/7h[16:1],,5h[16:1]/6h[16:1],,5h[16:1]/4h[16:1],,
{16}3,4,2,5,1,,78,,1,2,3,4,8,1,2,3,
{16}4h[16:1]/1h[16:1],,5h[16:1]/2h[16:1],,3h[16:1]/6h[16:1],,4h[16:1]/7h[16:1],,5h[16:1]/8h[16:1],,5h[16:1]/1h[16:1],,5h[16:1]/2h[16:1],,5h[16:1]/3h[16:1],,
{1}4b>5[4:13]/5bp4[4:7],,,
{4}1,2,3,4,
{8}5-1[8:1],7,5,,8-4[8:1],2,8,,1-5[8:1],26,1,,8-4[8:1]/4,73,8,,
{8}3-8[8:1],7-3[8:1],3,7,2-5[8:1],6-2[8:1],2,6,4,
{16}4,5,3,6,2,7,1-3[8:1]/8-6[8:1],,,,1-5[8:1]/8-4[8:1],,,,1b/8b,,,,
{4},,,,,,
{8},
{32}1q1[7.6#384:21],82,3p7[11.3#384:31]/7p3[11.3#384:31],
{96}4>6[4:13],6<4[4:13]*<4[4:13],,
{1}5q5[7.75#384:21],
{1},,,,,,
{32},,,,,,,,
{4},,,
{8}6h[8:6],,,,7,,,,8,,8h[8:4],,1,,,,1h[8:6],,,,2,,,,34,1,,34,8,,17,,
{4}2p4[8:4],,4p6[8:4],,6p8[8:4],,8p2[8:4],,6<1[8:2],,2pp5[8:9],,8qq5[8:5],,,,
{8}6b/2h[8:4],,,,8,2,6,,
{24}2,3,4h[24:22],,,,,,,,,,
{8}5,5,6,,
{24},3,2h[24:19],,,,,,,,,,
{8}7,7,6,,
{24}2,1,8h[24:10],,,,,,,,,,5,,,,,,71,,,,,,
{8}3,3h[8:2],5,,6,6h[8:2],4,,3,3h[8:2],4,,6,6h[8:2],5,,4h[8:2],5,6,7,8h[8:2],1,2,3,3h[8:2],1,8,7,6h[8:2],2,1,8b,
{32}8h[8:2],,,,7b,6,5,4,3,,,,1h[8:2],,,,8b,7,6,5,4,,,,2h[8:2],,,,1b,8,7,6,5,,,,3h[8:2],,,,2b,1,8,7,6,,,,
{16}3,4,2,6,5,7,18,,
{32}2b,3,4,5,6,,,,8h[8:2],,,,1b,2,3,4,5,,,,7h[8:2],,,,8b,1,2,3,4,,,,6h[8:2],,,,7b,8,1,2,3,,,,5,,,,
{16}1,8,2,7,3,6,45,,
{16}3,4,3,4,5,4,5,4,5,6,5,6,7,6,7,6,8,7,1,6,8,7,2,5,8,7,3,4,
{24}1b,8,1,8,1,8,
{24}2b,3,4,1b,2,3,7b,6,5,8b,7,6,
{32}1b,2,3,4,1b,2,3,4,8b,7,6,5,8b,7,6,5bp8[8:4],1bp4[8:4],,,,,,,,,,,,,,,,,,,,,,,,,,,,,,,,
{32}3b>5[4:21]/7b,2/6<4[4:13],15,,,,,,
{4},,,,,,,,,,,,,,,
{8}4h[8:2],,,4h[8:2],,,3h[8:2],,,2h[8:2],,,1,,1h[32:71],,5h[8:2],,,5h[8:2],,,6h[8:2],,,7h[8:2],,,8,,8h[32:7],,
{32}2b/7b,36,45,
&inote_6=(95)
{1}
{8},,,,
{16}3,4,5,6,3h[16:3],4,5,6,,4,5,6,3h[16:3],4,5,6,
{16},4,5,6,3h[16:3],4,5,6,,5,6,3h[8:1],4,5,2h[8:1],3,
{16}4,1,8,7,2h[16:3],1,8,7,,1,8,7,2h[16:3],1,8,7,
{16},1,8,7,2h[16:3],1,8,7,,2,1,8h[8:1],3,2,1h[8:1],4,
{16}3-5[16:1],,2,,1,1,8,8,2-4[16:1],,1,,8,8,7,7,
{16}1-3[16:1],,8,,7,7,6q3[8:1],6,8q1[8:2],,,,,,,,
{16}5-7[16:1],,4,,3,3,2,2,4-6[16:1],,3,,2,2,1,1,
{16}3-5[16:1],,2,,1,1,8,8,2,6,5,2,7,3,4V68[8:13],7V53[16:9],
{16}1b,,,,,,,,,,,,,,,,
{16}4V28[32:12],,,,,,,,,,,,,,,,
{16}3h[8:1],1,,4h[8:1],8,,5h[8:1],7,,6h[8:1],7,,5,6,3,4,
{16}2h[8:1],5,,1h[8:1],4,,8h[8:1],5,,7h[8:1],6,,3,2,4,,
{16}1b,7,8,5,8,7,2,7,8,5,8-5[16:1],6-1[16:1],3,3,,,
{16}4,3,2,1,2,3,5,3,2,8,2-5[16:1],4-1[16:1],6,6,,,
{16}6,8,1,5,2,1,7,1,2,4,2-7[16:1]*-5[16:1],1,6,6,,,
{16}8,4,3,6,3,4,8,4,3,6,2-5[16:1],4-7[16:1],8,6,,,
{16}1,,{32}43,,7,8,7<4[16:1],,16,,1,8,1,,{32}2,,{16},23,{32}1,8,2,7,3,,1,28,,,
{32}37,,,,65,,2,1,2>5[16:1],8,1,,8h[32:1],,,,7,,,7h[32:1],6,,8,1,7,2,6,,8,17,,,
{32}26,,3,4,3,,2,,15,,16,,17,,18,,2/4,,6,5,6,,7,,
{16}84,83,82,81,{32}7,5,6,4,5,3,4,2,8-4[12:4],7,8,1,7s3[8:2],6,1,2,,,,,,,,,,,,,,,,,
{64}1/7,2/6,3,4,,,,,{32}1/2h[8:1],,,,
{32}4,5,6,3.,4,5,8,7,6,2,3,4,8,,2h[16:1]/6,,3,4,5,2,3,4,7,6,5,1,2,3,8,,2h[16:1]/6,,3,4,5,1,2,3,7,8,1,5,6,7,4/5,,27,,1-5[8:1],,8,,2,7,3,6,
{16}4b>5[8:6],,,,1h[8:1],,,7h[8:1],,,5h[8:1],,,3h[8:1],,,
{16}4-8[8:3],,5,5,7h[16:2],,,1h[16:2],,,3h[8:1],,{32}8,,7,,{64}2,3,4,5,6,7,8,1,
{32}2bV83[8:1],,,,8,,8,,2,,6,,6,,4V26[8:1],5,4,,6-3[16:1],5,6-1[16:1],,7,,7,,,,,,,,
{64}2V84[8:1],3,4,5,,,,,{32}8,,8,,2,,6,,6,,7,8,7,,16,,{64},8,7,6,5,2,3,4,
{16}5b-1[16:1],,3h[16:1]/7h[16:1],,5V74[8:1],,2,2,5,1,1,{32}2V48[8:1],4,2,,8-3[16:1],7,8-5[16:1],,6,,6,,,,,,,,
{64}4V61[8:1],3,2,1,{32},,6,,2,,4,,3z7[16:5],,4V62[8:2],,,,,,,,,,,,,,,,,,,,
{16}1h[8:2],5,5,5,8h[8:2],5,5,5,2h[8:2],5-3[16:1],5-7[16:1],5,8,5,5,,
{16}1h[8:2],4,4,4,7h[8:2],4,4,4,8-4[16:1],4-2[32:1],4-6[32:1],4-1[32:1],4-7[32:1],,,,
{16}8b,,,,3h[8:2],5,5,5,1h[8:2],5,5,5,7h[8:2],5s1[16:5],5z1[8:2],5,
{16}3b,,,,,,,,,{32}2,13,,7,8-4[16:1]/6,,5,4,6,3,7,2,,,
{32}1b,,5,6,74,5,,8,8h[16:1],,2,1,3,1,2h[16:1],,3,4,5,6,2,3,4,5,1,2,3,4,2h,5h,3h,6h,
{32}4,7,5,4,3/6,5,,2,2h[16:1],,8,1,7,1,8h[16:1],,7,6,5,4,8,7,6,5,2,3,4,5,8h,4h,7h,3h,
{32}6b,,3,2,15,4,,8-5[16:1],8,,6,1,7,2,8,,1,2,3,4,56,4,3,2,8-4[16:1],7,6,5,43,5,6,7,
{32}8,,1,2,3/6,7,,5-8[16:1],5,,7,4,6,3,5,,1,2,3,4,5/6,4,3,2,8v5[16:1],7,6,5,4/3,5,6,7,
{16}1<1[4:6]/8v3[4:4],,,,
{4},,,,,
{16},,,,,,6b/3b,,7-3[16:1],3,3,,7-5[16:1],1,1,,7/4-8[16:1],3,3,,2-5[16:1]/4,1,1,,2/8-4[16:1],8,7,7,3-6[16:1]/8,3,2,2,37,
{32}7,8,1,2,3,4,5/1<6[16:1]*>4[16:1],,,,
{48}37,,,,,,
{4}1bw5[23.8#16:7]*w5[23.8#16:7],,,
{8},
{16},
{64}5qq3[7.75#16:1]*pp7[7.75#16:1],46,37,28,1bq8[11.85#8:1]*p2[11.85#8:1],,,,,,,,,,,,,,,,
{1},,,
{4},,,
{16}3,4,3,5,4h[8:2]/6,,,,6,5,6,4,5h[8:2]/3,,,,1,4,2,3,24,,57,,4h[16:3]/8-4[16:1],7,,1,38,,1,,
{16}2,4,3,4,5/3,4,2h[8:1],,7,5,6,5,4/6,5,7h[8:1],,
{16}1,3,24,,75,,2,1,8-3[16:1]/3h[16:3],1,,7,4-8[16:1]/8,5h[16:2],,1,8bV24[4:2],,,,
{4},
{4}5V71[4:2],,
{16}2,,,,3,,,,
{16}5h[8:1],,7,,4h[8:1],,2,,
{16}3-1[16:1],4,5,,3-7[16:1],4,5,6,7-3[16:1],8,1,,7-5[16:1],8,1,2,3-5[16:1]/7,2,1,8,3/7-5[16:1],8,1,2,3-5[16:1]*-8[16:1]/7,2,6,4,,,1b/7b,,
{32}25,,3,4,3,,26,,3,4,3,,27,,3,4,3,,28,,6,5,7,,2,8,3,7,
{64}4,3,2,1,8,7,6,5,
{32}74,,6,5,6,,73,,6,5,6,,72,,6,5,6,,71,,6,5,6,,4b/7b,,2b/5b,,6b/8b,,1b/3b,,
{32}2,4,3,4,1,5,4,5,1,6,5,6,8,7,6,7,2,1,3,8,2,1,3,8,2b,1b,4b,7b,2b,1b,4b,7b,
{48}3,2,1,7,6,5,2,1,8,6,5,4,
{64}1bpp4[8:3],2,3,4,7b,6,5,4,2b,3,4,5,8bqq5[16:3],7,6,5,1b,,,,,,,,,,,,,,,,,,,,,,,,
{24},,
{48}36,27,
{16}1/8h[4:3],2,3,1,2,3,1,2,3,1,2,3,4,6,3,7h[16:13],8,1,2,8,1,2,8,1,2,8,1,2,8,6,2h[16:14],,
{16}1,8,7,1,8,7,1,8,7,1,8,7,1,3,6h[16:13],,7,8,1,7,8,1,7,8,1,7,8,1,8w4[16:1],,1/7,,
