&title=HANABI
&artist=いきものがかり
&first=1.16
&des=じごくちょう
&lv_5=12+
&inote_5=(167.05)
{1}3q5[2:1],6p4[2:1],1>7[2:1],
{4}8z4[8:4],,2-6[8:1],,5w1[2:1],,,,3qq4[4:7],,,,5<4[4:3],,,,,,,
{8}2-6[8:1],,4<7[8:1],,
{16}E1,E2,E3,E4,E5,,
{8}1x-5[8:1],,4-8[8:1],4,,6>3[8:1],,1-5[8:1],,1<6[8:1],,4-8[8:1],,
{8}4,5,6,7-3[8:1],,2-5[8:1],2,,4>1[8:1]*<7[8:1],,4x,,
{8}8-4[8:1],,5>2[8:1],,
{16}E2,E1,E8,E7,E6,,
{8}8x-4[8:1],,5-1[8:1],5,,3<6[8:1],,8-4[8:1],,8>3[8:1],,5-1[8:1],,
{8}5,4,3,2bz6[2:1],,,,,,,,,
{16}2-4[8:1],,,,7,,,,6-2[8:1],,5,,4,,,,
3-8[8:1],,,,7,,,,6-2[8:1],,,,8,,,,
1>4[4:1],,,,4-8[4:1],,,,8<5[4:1],,,,5,,,,
1-5[8:1],,,,1,,,,1w5[8:1],,,,1,,,,
{16}7-5[8:1],,,,3,,,,3-7[8:1],,4,,5,,,,
6-1[8:1],,,,2,,,,3-7[8:1],,,,1,,,,
8<5[4:1],,,,5-1[4:1],,,,1>4[4:1],,,,4,,,,
8-4[8:1],,,,8,,,,8w4[8:1],,,,8,,,,
{8}2pp1[8:5],,5,6,7-5[8:1],,7,,4-8[8:1],,2,3,4v1[8:1],,8,,
{8}7qq8[8:5],,4,3,2-4[8:1],,2,,5-1[8:1],,7,6,5v8[8:1],,1,,
{16}2-6[8:1],,,,8<5[8:1],,,,4-8[8:1],,3,,2,,,,
2-6[8:1],,,,8<5[8:1],,,,4-8[8:1],,3,,2,,,,
{8}1,2/8,3/7,6/4,
{16}3,5,3,5,3,5,1-5[8:1],,,,1,,6,,7V51[4:1],,,,7b,,4b,,,,
{8}3,2,1,8>3[8:1],,5,6,7<4[8:1],,3,2,1-5[8:1],,6,7,8,4,3,
{16}2/8,,1,,7,8,7,8,7,{64},,,
{16}1-5[8:1]/6-1[8:1],,,,1/6,,,,8<5[8:1]/4>1[8:1],,,,8b/4b,,,,,{64},,,
(166.05)
{16}1V73[4:1],,,,5,,6<1-5[4:1],,,,4,,3,,2,,
{16}1V73[4:1],,,,5,,6<1-5[4:1],,,,4,,3,,2,,
{16}1-4[8:1],,,,5,,6V48[4:1],,,,4,,3,,2,,1,,8/2,,7,,6v7[8:1]/1-5[8:1],,,,1/6,,
{8},4,3-8[8:1],,7,6V47[4:1],,1-4[8:1],,1,8,8-4[8:1],,3-6[8:1]/8,,7-2[8:1]/3,,7/4,
{8}4,4,4/1xv6[8:1],4,4,4,4/5xv8[8:1],4,4,4,4/7xV51[4:1]*V52[4:1],4,4,,,
{64},,,,,,
{16}8V26[4:1],,,,4,,3>8-4[4:1],,,,5,,6,,7,,
{16}8V26[4:1],,,,4,,3>8-4[4:1],,,,5,,6,,7,,
{16}8-5[8:1],,,,4,,3V51[4:1],,6,,7,,,,8,,8,,1/7,,2,,3v2[8:1]/8-4[8:1],,,,8/3,,
{8},5,6-1[8:1],,2,3V52[4:1],,8-5[8:1],,8,1,1-5[8:1],,6-3[8:1]/1,,2-7[8:1]/6,,2/5,
{8}5,5,5/8xv3[8:1],5,5,5,5/4xv1[8:1],5,5,5,5/2xV48[4:1]*V47[4:1],5,5,,,
{64},,,,,,
(167.05)
{8}1q3[2:1]/6h[1:2],,,,,,,,3>4[2:1],,,,,,,,
{8}2-6[8:1],,4<7[8:1],,
{16}E1,E2,E3,E4,E5,,
{8}1x-5[8:1],,4-8[8:1],4,,6>3[8:1],,1-5[8:1],,1<6[8:1],,4-8[8:1],,
{8}4,5,6,7bz3[1:4]/1bz5[1:4],
