&title=散り散り
&artist=読谷あかね
&first=0.5
&des=Rainbow.
&lv_5=14
&inote_5=(184)
{16}17,,8,,17,,7,5,6,4,5,,8,1,7,8,
{4}7^4[8:1],4,3^8[8:1],8,7qq5[8:1],5,3qq1[8:1],1,
{4}7V58[6:1],5,3V14[6:1],1,7^4[8:1],4,3^8[8:1],8,
{16}6,,5,,47,,6,5,6,5,6,,7,,8,,1,,2,,38,,2,1,2,1,2,,8,,7,,
6-4[8:1],,,,46,,2-5[8:1],,,,12,,8,,7,,6,,6,,5,,4,5,3,4,2,,17,,8,,
{4}6^3[8:1],3,2v7[8:1],7,6v3[8:1],3,2^7[8:1],7,
{4}6-4[8:1],4,2V83[6:1],8,6V47[6:1],4,2-8[8:1],8,
{16}7,,8,,16,,7,8,7,8,7,,1,,2,,3,,4,,25,,3,4,3,4,3,,5,,6,,
{8}7^4[8:1],8,1,2^7[8:1],3,4,5^2[8:1],6,7,8^5[8:1],1,2,3^8[8:1],,34,5,
{8}6h[2:1],,5,,4,4h[8:3],5,,6h[2:1],,5,,4-2[8:1],4,5,,
7h[2:1],,8,,1,1h[8:3],8,,7h[2:1],,8,,1,1,8-4[8:1],,
2h[2:1],,3,,4,4h[8:3],3,,2h[2:1],,3,,4^6[8:1],4,3,,
2h[2:1],,1,,8,8h[8:3],1,,2h[2:1],,1,,8,8,1,,
7^4[8:1],,78,,1,2,34,,2^5[8:1],,21,,8,7,65,,
7-5[8:1]/8-4[8:1],,78,,3,2,18,,2-4[8:1]/1-5[8:1],,21,,6,7,81,,
2v5[8:1],,26,7^4[8:1],,47,3,2,1v6[8:1],,16,7^4[8:1],,47,3,2,
1qq4[4:3],5,1,5,,,,,6,5,5,{16}3,4,3,5,4,,7,1,8,2,
6,5,6,4,5,3,4,3,6,4,5,3,6,4,5,3,5,4,5,4,6,3,6,3,7,2,7,2,8,1,8,1,
{8}8^5[8:1],,5,4^1[8:1],,1,8,,6p4[2:1],4,6,4,,4,3,2,{16}
7,8,7,1,8,2,1,2,7,1,8,2,7,1,8,2,8,1,8,1,7,2,7,2,6,3,8,1,5,4,7,2,
{8}6^1[8:1],,2,3p7[8:1],,7,6,,5pp1[2:1]/4,,,4,4,,3,2,{16}
7,8,6,1,5,2,4,3,1,2,8,3,7,4,6,5,6,5,6,4,6,3,6,2,6,2,7,2,8,2,1,2,
1,,3,4,3,,56,,7,,18,,7,,56,,3,4,2,4,3,,8,1,7,,6,,5,4,5,,
2,4,3,5,4,6,5,7,3,1,2,8,1,7,8,6,2,4,2,5,2,6,2,7,2,8,2,1,2,3,2,4,
{8}2-5[8:1],5-1[8:1],2,6,,7^4[8:1],8,7,2-6[8:1],6-2[8:1],2,7,,7,6,5,
{8}3h[8:1],4h[8:1],3h[8:1],4h[8:1],3h[8:1],2h[8:1],3h[8:1],2h[8:1],3h[8:1],1h[8:1],2h[8:1],8h[8:1],1h[8:1],7h[8:1],8h[8:1],6h[4:1],,5h[8:1],6h[8:1],4h[8:1],6h[8:1],3h[8:1],5h[8:1],3h[8:1],
{6}4h[48:1],5h[48:1],6h[48:1],7h[48:1],8h[48:1],1h[48:1],
{8}4b/2h[48:1],,,,,5,4,6,
7-3[8:1]/2>7[4:1],,2/7>3[24:5],,4,4,,7^4[8:1],4q8[8:1],7,3,3,,2^5[8:1],1,2,8-3[8:1],8,4,,5-1[8:1],6-8[8:1],5,6,3-5[8:1],3,5,6,,
78,1,2,3^6[8:1],,6,,8p4[8:1],,2,,1-5[8:1],7-4[8:1],1,7,3-8[8:1],6^1[8:1],3,6,,2,,1^6[8:1],1,2,3,4^1[8:1],4,5,6,7,8,
1,8,2,3-6[8:1]/7V53[4:1],,3V16[4:1]/7,,8,8,,4V28[4:1],5,4,6-2[8:1],6,,3,3,4,5-2[8:1]*-1[8:1],5,5,,7-4[8:1],4-8[8:1],7,3,2,2^5[8:1],1,2,,
8,7,6,5>1[4:1],,1<5[4:1],,5V31[4:1],,1V75[4:1],,5,4,3,2,1-5[8:1],8-4[8:1],1,8,,27,,6^1[8:1],6,5,4,3^6[8:1],3,2,1,8^3[8:1],8,7,6,5,
{16}2,4,3,5,2,4,3,5,4,6,3,5,4,6,3,5,1,7,2,8,1,7,2,8,3,1,2,8,3,1,2,8,5,6,4,7,3,8,2,1,3,4,2,5,1,6,8,7,2,1,2,1,3,4,3,4,1,7,3,5,1b,,,,
{8}7-3[8:1],7,8,1,2-6[8:1],2,3,4,5-1[8:1],5,6,7,8-4[8:1],8,1,2,35,6,78,1,24,6,17,8,
{16}8,8,8,8,8,8,8,8,8,8,8,8,8w4[1:7],8,8,8,8,
