&title=You
&artist=Zekk
&first=0.37
&des=614432
&lv_5=14
&inote_5=(124)
{16},,,,4h[4:1],,,,E3,E2,E1,E8,E7/4>2[8:1],,,,6,,,,E7,E6,4,,4>2[8:1],,5,,6,,7>2[4:1],,,,7,,3,,3,,,,4h[8:1]/B7,,5<7[8:1],,4,,3,,,,E3,E4,5,,5<7[8:1],,4,,3,,2<7[4:1],,,,2,,6,,6,,,,5h[8:1]/B2,,E7,E8,E1,E2,E3/7<5[8:1],,,,7,2,1,,7-4[8:1],,8,,7,,1h[4:1],,,,4,2,4,3,5,,4/6>3[4:1],,3,,6,,2,,2-5[8:1],,,,2,8,7,,2>4[8:1],,1,,2,,8h[4:3],,,,E5,,E7,,E1,,
{32}E3,E2,E1,E8,E7,E6,E5,E4,
{16}8-4[8:1],,,,8b/2,,2,,2-6[8:1],4,2,1,2>4[8:1],,8,,27,,8,,7,4,7,8xh,6,3,6,7xh,5,2,5,6xh,4<7[8:1],3,4,1xh,4b,,,,7-3[8:1],5,7,8,7<5[8:1],,1,,72,,1,,2,5,2,1xh,3,6,3,2xh,4,7,4,3xh,5-1[8:1],,,,5b/7,,7,,7-3[8:1],5,7,8,7<5[8:1],,1,,72,,1,,2,5,2,1xh,3,6,3,2xh,4,7,4,3xh,5>2[8:1],6,5,8xh,5b,,,,2-6[8:1],4,2,1,2>4[8:1],,8,,27,,8h[4:3],,E5,,E7,,E1,,E3,,3h,,3h,,3bh/8b-4[1:1],,,,,,,,,,,,,,,,,,,,Ch[2:1],,,,,,,,7-3[8:1],,,,,,,,1>3[8:1],,,,14,,5,5,4h[4:1],,6,,7,,8/4>2[8:1],,,,8,,7,,6pp4[4:1],1,6,,6/E2,,E3,,2-5[4:1],,,,2,,,,1-4[4:1],,,,1<4[2:1],,,,1,,,,,,,,7h[4:1],,,,
{32}A6,E6,B5,B4,E4,A3,,,,,,,
{16}8<6[8:1],,,,85,,4,4,5h[4:1],,3,,2,,1/5<7[8:1],,,,1,,2,,3qq5[4:1],8,3,,3/E8,,E7,,7-4[4:1],,,,7,,,,,,1>4[4:1],,,,,,,,Ch[2:1]f,,,,,,,,
{16},,2,,3,,4,,5<7[8:1],,,,3/5,,4,,5>2[8:1],,,,5<8qq5[2:1]/6,,,,5,,,,1h[8:1],,,,1>3[8:1],,,,1/7,,8,,1q5[8:1],,,,17,,8,,1h[4:1],,,,5>8[4:1],,5,,,,,,4<1[4:1],,,,,,3h[16:1],,3h[16:1],,3,,31,,1,,28,,2,,71,,7,,68,,8,,75,,7,,46,,4,,3-5[8:1]/5-3[8:1],,,,35,,,,1,,2,,3,,4,,5,6,7,8,
{24}1x,,2x,,3x,,4xz8[2:1]*s8[2:1],,,,,,,,,,,,,,,,,,,,,,,,
{16}2/5h[4:1],,,,1-3[8:1],8,4-8[8:1],5,1-5[8:1],,4,,1,,6h[4:1],,,,7,,8-4[8:1],7,4-2[8:1],5,8-4-6[4:1],,7,,8,,1,,3h[4:1],,,,8-6[8:1],1,5-1[8:1],4,8-4[8:1],,5,,8,,3h[4:1],,,,2,,1-5[8:1],2,5-7[8:1],4,1-5-3[4:1],,2,,1,,8,,6h[4:1],,,,1-3[8:1],8,4-8[8:1],5,1-5[8:1],,4,,1,,6h[4:1],,,,7,,8-4[8:1],7,4-2[8:1],5,8-4-6[4:1],,7,,8,,1,,3h[4:1],,,,8-6[8:1],1,5-1[8:1],4,8-4[8:1],,5,,8,,3h[4:1],,,,2,2,1,1,8,8,
{32}1,2,3,4,5,6,7,8,1,2,3,4,5,6,7,8,
{16}1b-3[8:1]/5h[4:1],,1,,1-5[8:1],,5-7[8:1],,1/3V15[4:1],,2,,3,,,,8-2[8:1],,2-6[8:1],,8-4[8:1],,,,8,,,,8-2[8:1],,2-6[8:1],,8-4[8:1],,,,8,,,,8-2[8:1],,2-6[8:1],,8pp4[2:1],,,,8,,,,,,,,5,,5h[8:1],,7,,7h[8:1],,8b-6[8:1],,8,,8-4[8:1],,4-2[8:1],,8/6V84[4:1],,7,,6,,,,1-7[8:1],,7-3[8:1],,1-5[8:1],,,,1,,,,1-7[8:1],,7-3[8:1],,1-5[8:1],,,,1,,,,1-7[8:1],,7-3[8:1],,1qq5[2:1],,,,1,,4,,3,,2,,
{32}1,2,3,4,5,6,7,8,
{16}1bw5[4:3],,,,,,,,,,,,,,,,,,,,3<6[8:1],,,,E7,,,,3<6[8:1],,,,E7,,,,3<6[8:1],,,,E7,,,,3<6[8:1],,,,E7,,,,6>3[8:1],,,,E3,,,,6>3[8:1],,,,E3,,,,6>3[8:1],,,,E3,,,,6>3[8:1],,,,E3,,,,3<5[8:1],,,,E6,,,,3<5[8:1],,,,E6,,,,3<5[8:1],,,,E6,,,,3<5[8:1],,,,E6,,,,6>4[8:1],,,,E4,,,,6>4[8:1],,,,E4,,,,6>4[8:1],,,,E4,,,,6>4[8:1],,,,2b<7[8:1]b,,,,4>5[2:1],
