&title=Diddy Heil Epstein
&artist=Havexy
&first=0.21
&des=MiraT the Diddy
&lv_5=13+
&inote_5=(100)
{4},,,{192},,,,,4x,,,,3x,,,,2hx[96:81],,,,{48},,,,,,,,
{48},,,,,,,,,,,,,,,,,,,,,,,,,,,,,,,{96},8x,{48},8x,,,
{48}1,,,7,,,{192},2,,,,,,,,,,,,6,,,,,,,,,,,
{96},3h[96:9],,4x,,,,,,,4x,,,,,,{192},{48}4h[192:19],3x,,,{192},,,{96}3x,,,,,,,{192},,,{48}Chf[96:61],,,,,,,,,,,,,,,,,,{96},{16},,,,
{16}1b,,,,,,,8h[96:12],{64},,,,{96}1x,,1x,,,,,,,,,7,,,,,4,,,,,4,,,,,,5hx[96:3],,,,,,,,,3x,,,,,,
{8}2x-5[8:1],2,8-3[8:1]/2,7,6-1[8:1]/8,6,4-7[8:1]/6,3,
{8}2-5[8:1]/4,2,28,{16}7,7,8,6,1,7,3,8,2,1,
{8}2-5[8:1],2,2/7-4[8:1],8,7/3-8[8:1],3,36,5,
{16}7,7,3,8,2,7,1,6,4,8,2,6,C,,3,4,
{16}2v5[8:1],,2,,21,,8,7,7-3[8:1],,45,6,7,,1qq5[4:1],,
{16}2,,31,3,,,2,,1pp5[4:1],,8,,17,7,6<1[8:1],,
{16}6,,4-7[8:1],,4,,2,2h[8:1],,8,8,7,6,,4,5,
{16}4,,3,3>8[16:1],,5,5,3,{24}6h[24:7],,,2x,,2x,,2x,,7x,,8x,
{16}2x,1,3h[16:3],2xv5[8:1],,,,24,4,,3,,63,,8,1,
{16}7p5[4:1],,18,,7,,3xv8[8:1],3,2,,{24}3/1x,,1,{16},1,,,
{16}7,6,5,,3/5<4[8:3],,46,,57,,,,,,,,
{16}6,,6,,{24}2-6b[8:1]*<3[8:8]/5,,48,,16,,2b/8b,,,,,,,,,,,,
{4}Ch[8:4],,,{16}1-5[8:1]/8,1,8-4b[8:1]/1,,1b,,8,,
{16}3,3,5,2,7,4,6x/5x,,8v3[8:1]/1,8,8/1-5b[8:1],,
{16}8b,,1,,6,6,4,7,2,1,3x/8x,,1v6[8:1]/8,1,1/8-4b[8:1],,
{16}1b,,8,,3,3,6,5,7,8,1x/6x,,27,,45,,
{16}6-1[8:1]/3,4,3-8[8:1]/6,,6x,,3x,,7,,54,,7-1-5[4:1],1,7/1-4b[8:1],,
{16}7b,,A1,,,,3,6,5,7,7x/C/B3,,2-8-4[4:1],8,2/8-5b[8:1],,
{16}2b,,A8,,,,6,2,7,4,4x/B6/B5,,7-1-5[4:1],1,7/1-4b[8:1],,
{16}7b,,A1,,,,3,7,2,5,5x/B3/B2,,74,,25,,
{16}5-1[8:1],64,7/3s7[4:1],,5x,,3x,,,,8-4[8:1],8,8,,1x/8x,,
{16}2b,2,2,2,7x,1,6,6,54,3,3,3,{32}7x,1,7,1,{16}7,2,
{16}2/8-4[8:1],,37,,2x/8x,1,1,1,6,2,5,5,{32}3x,4,2,,4,3,5,,
{16}2b,2,2,2,1x/8x,7,6,5,2,2,8,3,{32}6x,4,6,4,{16}6,3,
{16}3/5-1[8:1],,64,,3x/5x,4,4,4,8,7,2,1,B6`E6,E2,C,E4,
{16}8b,8,8,8,1x/7x,2,3,4,6,6,2,8,{32}3x,1,3,1,3,,8,,
{16}8/2-6[8:1],,34,,2x/6x,7,7,7,1,8,3,3,{32}5x,4,6,,4,5,3,,
{16}6b,6,1,2,7x,7,4,3,12,8,8,8,{32}4x,6,4,6,4,,7,,
{16}7p4>5[2:1],,,,,,,,,,,,,,,1,
{16}1-4[8:1],,82,,16,,7h[32:15],{32}B4,,,B6,,,B8,,,B2,,,,C,,,,7x,
{32},1x,,6x,,8x,,,72,,,,6x/4x,,,,8<4[8:1],,,3,,,2,,81,,,,,,1p5[8:1],,
{16}1,,2,21,,4,4v7[8:1],4,4-1[8:1],,4x,,4x,,6,,
{16}7qq3[4:1],5,6,,{12}73,2,1,{16}1q5[8:1],1,8,2,1,,3x,,
{16}71,,8-5[8:1],8-3[8:1],,1,8x,8x,{24},,E7/B7,,E5/B5,,{16}E3/B3,,1<4[16:3],1,
{16},2,1,,2v5[8:1],,6,7,82,,7,7,3,4,2,6,
{16}6<1[8:1],,84,,3-8[8:1]/6,4,,4,37,,5,,46,,,,
{16}6,,6,,{24}2-6b[8:1]*<3[8:8]/5,,48,,16,,2b/8b,,,,,,,,,,,,
{4}Ch[8:4],,,{16}2-5[8:1]/7,2,7-4b[8:1]/2,,
{16}2b-8[8:1],,7,,2,,6,6,1,8,1x/8x,,7-4[8:1]/2,7,7/2-6b[8:1],,
{16}7b-1[8:1],,2,,7,,3,3,7,4,6x/5x,,2-5[8:1]/7,2,2/7-3b[8:1],,
{16}2b-8[8:1],,7,,2,,6,6,2,5,3x/4x,,72,,45,,
{16}6-1[8:1]/2,3,6/2-5[8:1],,6x,,2x,,8,,36,,7-1[8:1]/1-5[8:1],1,1-6b[8:1],,
{16}7b/1-4[8:1],,A1,,,,7,7,4,5,3x/C,,2-8[8:1]/8-4[8:1],8,8-3b[8:1],,
{16}2b/8-5[8:1],,A8,,,,4,4,7,6,5x/E4/B3,,7-1[8:1]/1-5[8:1],1,1-6b[8:1],,
{16}7b/1-4[8:1],,A1,,,,5,5,2,3,4x/E6/B6,,73,,25,,
{16}4-8[8:1],35,2/6z2[4:1],,4x,,6x,,,,1-5[8:1],1,1,,8x/1x,,
{16}7b,7,7,7,2x,8,3,3,45,6,6,6,{32}2x,8,2,8,{16}2,7,
{16}7/1-5[8:1],,62,,7x/1x,8,8,8,3,7,4,4,{32}6x,5,7,,5,6,4,,
{16}7b,7,7,7,8x/1x,2,3,4,7,7,1,6,{32}3x,5,3,5,{16}3,6,
{16}6/4-8[8:1],,35,,6x/4x,5,5,5,1,2,7,8,B3`E4,E8,C,E6,
{16}1b,1,1,1,8x/2x,7,6,5,3,3,7,1,{32}6x,8,6,8,6,,1,,
{16}1/7-3[8:1],,65,,7x/3x,2,2,2,8,1,6,6,{32}4x,5,3,,5,4,6,,
{16}3b,3,8,7,2x,2,5,6,87,1,1,1,{32}5x,3,5,3,5,,2,,
{16}2q5<4[2:1],,,,,,,,,,,,,,7h[192:29],,
{192},,,,,5x,,,,4x,,,,3xqq6[192:130],,,{24},,,,{4},,,
