&title=Like the gale
&artist=グラサンねこ
&first=0.04
&des=321Jump#FF0000
&clock_count=4
&lv_5=14
&inote_5=(182)
{1},,
{16}8b/1b,,2,6,3,5,2h[8:1],,4h[16:3],,,5h[16:3],,,6,,
6h[16:3],,,5,7,,84,,2h[16:3]/1,,,4,,,15,,
7b,8,7,,6,,6,,5/4h[16:3],,,3h[16:3],,,2,,
1,8,1,8,,6,5,,4/3^6[8:1],,,,,,,,
8b,8h[8:1],,1,,2,4<8[8:2],,1h[8:3],,,,,,,,
2,8,4,1,,3,3,,6,5,7,4,,6,6,,
{24}3b,2h[24:1],,8,7h[24:1],,3,2h[24:1],,8,7h[24:1],,
2,1h[24:1],,7,6h[24:1],,2,1h[24:1],,7,6h[24:1],,
{24}2,1,8,7,6,5,{16}8,2,4,6,8w4[8:1],,,,,,,,
2b/6b,,3,4,3-6[8:1],,2/5,,,,,7,7,,8b/5b,,
,,6,5,6,,8-4[8:1]/4,,,,3,,3,,2,,
1b/5b,,7,8,6-3[8:1],,15,,,,,2,2,,1b/4b,,
,,3,4,2V48[8:2],,5,,5,,7b,,,,,,
6h[8:2]/1,,,,5,,8h[8:2]/4,,,,2,,5,,4,,
5-8[8:1],,7-4[8:1],,,,,,,,8,,8h[8:2],,,,
1b,,,,3h[8:1],,5h[8:1],,1,,8h[8:1],,5h[8:1],,7h[8:1],,
3,,4,,1,,7qq5[16:3],,,,2,,3h[8:2],,,,
1b,,2h[8:1],,5h[8:1],,4h[8:1],,8h[8:1],,1h[8:1],,7h[8:1],,8h[8:1],,
6-3[8:1],,2-7[8:1],,,,,,,,5h[8:2],,,,1,,
7b,,4,,5,,3,,8,,1,,2h[8:1],7,6,5,
43,,3,,5,,2,3,45,,5,,6,,81,,
3h[8:2]/7b,,,,4,,1h[8:2]/5,,,,7,,4,,5,,
4v1[8:1],,2-5[8:1],,,,,,,,1,,1h[8:2],,,,
8b,,,,6h[8:1],,4h[8:1],,8,,1h[8:1],,4h[8:1],,2h[8:1],,
6,,5,,7,,2v4[16:3],,,,7,,6h[8:2],,,,
8b,,7h[8:1],,4h[8:1],,5h[8:1],,1h[8:1],,8h[8:1],,2h[8:1],,1h[8:1],,
3^6[8:1],,7^2[8:1],,,,,,,,4h[8:2],,,,8,,
2b,,5,,4,,6,,1,,8,,7h[8:1],2,3,4,
56,,6,,4,,7,5,7,4,7,3,7,,18,,
2b/6bp5[16:6],,,,,,,,1,,2bpp3[8:2],,,,,,
6b<3[8:3],,,,,,,,,,,,1,8,1,8,
2h[8:2],,,,4,,2,4,8h[8:1],,6h[8:1],,5>1[8:2],5,,,
8h[8:2],,,,,7,6,5,42,,3h[8:1],,8,1,,7,
7pp4[8:3]/8,,,,,2h[16:2],,,2h[8:2],,,,
3qq6[8:3],,,,5,,,,7,7,,,8h[16:2],,6h[16:2],,1h[16:2],,3h[16:2],,
8^3[16:3],,,3^6[16:3],,,6,,,,1,2,3,,7,,
4h[16:2],,8h[16:2],,1h[16:2],,6,6,
8,,7,5,,3,4,,
7,6,5,,3,4,5,,74,63,52,,14,25,36,,
8b<3[8:2]/4b,,,,,,2b<5[8:2],,,,,,4bp6[8:3]*>6[8:3],,,,
,,,,,,,,,,,,1h[8:1],,8,,
2h[8:1],,4,3h[8:1],,8,4h[8:1],,7,5h[8:1],,6,4h[8:1],,5,,
26,,3,4,,2,1,,38,,7,5,,6,
8,,2,4,3,4,,6,5,,7h[8:1],,5,6h[8:1],,8,5,,
4/1h[16:3],,,3,,,2,8,4h[8:1],,6h[8:1],,3,4,,2,
5h[16:3],,,6h[16:3],,,7,,6h[16:3]/8,,,4h[16:3],,,2,,
17,,6,,82,,3,,18,,6,5,74,,3,4,
15,,7,5,84,,2,4,1,8,1,8,2,7,2,7,
1b/8b,,18,,2,4,3,5,4^1[8:1],,6,6,4^7[8:1],,5,,2,,3V52[8:2],,8,,
7h[8:2],,,,,,7,,2,,
1/8,,18,,2,4,3,5,4-1[8:1],,6,6,4-7[8:1],,5,,2,,3V51[8:2],,8,,
7h[8:2],,,,,,7,,2,,
1/8,,18,,2,4,3,5,4v1[8:1],,6,6,4,,5h[8:1],,2,4,3,4,2,4,
3,4,2,4,3,4,2,,7,,
8/1,,81,,7,5,6,4,5^8[8:1],,3,3,5v2[8:1],,4,,7,,6q8[8:2],,1,,
2h[8:2],,,,,,2,,7,,
18,,28,,2,3,4,5,7-4[8:1],,5,5,7,,3,,
2h[8:1],,{24}4,3,5,{16}4,,6h[16:2],,5,4,3,2,8,7,6,5,
14,,1,,2,3,4,5,7v4[8:1],,5,5,7,,3,,
2h[8:1],,{24}4,3,5,{16}4,,6h[16:2],,5,4,3,2,8,7,6,5,
14,,1,,2,3,4,5,7v5[8:1],,5,5,7,,3,,
2h[8:1],,{24}4,5,6,{16}7h[8:1],,{24}5,4,3,{16}28,7,6,5,1,2,3,4,
75,,7,,7,6,5,4,2v5[8:1],,4,4,2,,6,,
7h[8:1],,5,7,5,,64,,3b/4b,,,2b/8b,,,1b/7b,,
6-1[8:1],5,,7h[16:3],,,,,2-5[8:1],8,,3h[16:3],,,,,
4-8[8:1],6,5,6h[16:3],,,,,6^1[8:1],,2v5[8:1],,6,,,,
7,7h[8:1],,5,,6,6,,2,4,3,4h[8:1],,3,3,,6,5,6,5h[8:1],,6,6,,4,4,4,4h[8:1],,5,5,,
1b,4,3,4,2b,5,4,5,8b,6,5,6,2b,5,4,5,
1b,7,3,5,8b,6,2,4,1h[16:3],,,8h[8:1],,2,3,4,
6,5,,7h[8:1],,3,4,,2h[8:1]/1h[8:1],,,8h[8:1]/7h[8:1],,,65,,
3,4,3,5,,6h[8:1],,5,7b/5b,,,2b/4b,,,1b/8b,,
7,,3,5,4,,26,,1,2,3,4,2,3,4,5,
26,,1,8,1,,2q4[8:3],,,,7,,7,,,,
6,,7,5,7,,6,,24,,1,,75,,6,,
35,,3,4,2,4,1h[8:1],,6,1,7,1,8,,27,,
3,4,5,6,8-5[8:1],,8,,,4,3,2,1,2,3,4,
65,,6,,7,8,7,,2,4,2,4,1,8,1,8,
2,3,4,5,7,8,1,2,4,5,6,7,2,3,4,5,
{24}1,,{96}82,,,3,,,,,,,,,,,,,
{24}8,,{96}17,,,6,,,,,,,,,,,,,
{24}1,,{96}82,,,3,,,4,,,,,,,,,,
{24}8,,{96}17,,,6,,,5,,,,,,,,,,
{32}1b,2v8[1:1],3V57[1:1],4,
{16}5,,,,,,,,,,,,,,,,,,,,,,,,16,,1,5,2,4,
3h[8:3],,1,,,,5,4,7-4[16:1],,,1-5[16:1],,,8,,
7h[8:1],,4h[8:1],,6h[8:1],,8h[8:1],,2q6[8:1],,8p4[8:1],,,,,,
3h[8:3],,1,,,,5,4,7^4[16:1],,,1-5[16:1],,,8,,
7h[8:1],,4h[8:1],,6h[8:1],,8h[8:1],,2-6[8:1],,8-4[8:1],,,,,,
3h[8:3],,1,,,,5,4,7^4[16:1],,,1q5[16:1],,,8,,
7h[8:1],,4h[8:1],,6h[8:1],,8h[8:1],,1s5[16:3],,2,,3,,,,
2b/6b,,3,4,3qq4[8:2],,2/5,,,,,7,7,,8b/5b,,
,,6,5,6,,8p4[8:1]/4,,,,3,,3,,2,,
1b/5b,,7,8,6pp5[8:2],,15,,,,,2,2,,1b/4b,,
,,3,4,2qq5[8:3],,5,,5,,7b,,,,,,
{96}8bq3[8:8],5bp2[96:95],
