&title=Fly far bounce
&artist=猫叉Master
&first=0
&des=ミミズク
&lv_5=13+
&inote_5=(163){4},,,,,,,,
{16}34,,,,,,54,,,,,,,,65,,,,,,,,45,,,,,,,,,,67,,,,,,45,,,,,,23,,,,,,
E4,,E5,,E6,,,,,{32},7,{16}7,,,,
{16}5/4h[8:2],,,,6,,7p5[16:6]/5,,,,,,2,,1>4[8:2],,,,,,6,,7h[8:3],,,,,,8,1,2,3,47,,8,,1,,26,,{24}1,8,1,{16}8,,2>4[8:1]`7<5[128:15],,,,,,,,,,,,
3h[8:2],,,,E8,E3,B6,B4,
1b<6[8:1],,,,3h[128:1],,4-1[8:1],,,,5,,6h[128:1],,7-4[8:1],,,,3,,2h[128:1],,1-5[8:1],,,,6,,8h[128:1],,8h[128:1],,
37,,4,5,4,,6/2,,{24}E6,B5,B3,{16}E3,,8qq4[8:4],,,,,,,,,,,,1,,2,,6,,7,,
1/8>3[8:1],,7,,6h[128:1],,5-8[8:1],,,,4,,3h[128:1],,2-5[8:1],,,,6,,7h[128:1],,8-4[8:1],,,,3,,1h[128:1],,1h[128:1],,
62,,5,4,5,,3/7,,{24}E4,B4,B6,{16}E7,,1h[8:4],,,,E5,,,,E5,,,,E5/3,,,,C/7,,,,
{8}2-6[8:1]/6,,7,8,1-5[8:1]/5,,4,3,
2-6[8:1]/6,,7,8,1-5[8:1]/5,,4-1[8:1],,
7-4[8:1],,2-7[8:1],,5V38[8:2],,8-4[16:2],1,2-6[8:1],,7h[8:2],,5,46,3h[8:1]/7h[8:1],,
{8}7-3[8:1]/3,,2,1,8-4[8:1]/4,,5,6,
7-3[8:1]/3,,1<6[8:1],,4-8[8:1],,1>4[8:1],,
6V84[8:2],,4x-7[8:1],3,2-5[8:1],1,8-4[8:1],7,1<3[32:8],2,1-5[8:1],,1,,2>5[8:1]/6<1[8:1],,
6p4p2[8:14]/2,,,,,,,,,,,,,,,,
7h[8:2],,3h[8:2],,6,A7/D8,4,A3/D3,5h[8:4],,,,1pp3[32:5]*q7[32:5],,,,
{16}2hx[8:4]/8x,,,,E1,,,,7h[8:4],,,,B7,,,,3h[8:4],,,,B3,,,,6h[8:4],,,,E5,,,,
{8}3h[8:2],E1/B8,4h[8:2],D2/E2,5h[8:2],A8/E8,6h[8:2],C/B1,
4-7[8:1],,4>1[8:1]/3,,4-8[8:1]/6,5,42,,
{16}
3b/7b,,,,45,,3,4,2p6[8:1],,6v3[8:1],,2,,,,
5<8[8:1],,4,,53,,2,,1>4[8:1],,8,,17,,6,,
5-8-4[8:2],,,,4-7[8:1],,3,,2-6[8:1],,1,,8-3[8:1],,7,,
8<5[8:1],,,4,8-4[8:1],,,2,{48}8,,,,,,{16}1,,2h[8:1]/6h[8:1],,,,
47,,35,,2h[8:1],,{24}1-5[8:1],8,7,{16}6-1[8:1],,1,,6,,4,,
3/8,,2,,1/6v1[8:1],,5,,3>8[8:1],,4,,{24}7,6,5,{16}4,,
1xV35[8:2]/5x,,,,5-2[8:1],,6,,7-3[8:1],,8,,1-6[8:1],,2,,
5-8[8:1],,,,2-5[8:1],,,,4-1[8:1],,,,3,,,,
4b>5[8:8]/8b,,,,,,,,,,,,,,,,5>6[8:8],,,,,,,,,,,,,,,,6>7[8:8],,,,,,,,,,,,,,,,7pp3[8:6],,,,,,,,6,,,,6,,,,
5pp4[8:4],,,,4,,3,,2h[8:2],,,,,,2,3,
4qq5[8:4],,,,6,,7,,8h[8:2],,,,,,8,7,
5/6pp4[8:5],,,,1,,2,,3-8[8:1],,,,3,,,,
1-4[8:1]/5,,2,,61,,8>3>5b[8:3],,7,,38,,,,,,
1b>4[8:1],,2,6,1,,7,,8-4[8:1],,{24}5,4,3h[24:1],{16}8,,2,,1-5[8:1],,{24}4,5,6h[24:1],{16}1,,7,,8h[8:1],,5,6,8,7,1,6,
2-6[8:1],,4,,2,,8,,
{24}8x/5x,7x/4x,6x/3x,{16}5x<4[8:3]/2x,,1h[8:4],,,,
,,,,,,{24}2,3,4,{16}56,,78,,16,,2,3,
8<5[8:1]/4,,7,3,8,,2,,1q5[8:1],,8,6,1,,7,,8p4[8:1],,1,3,8,,2,,1,,2/5,,4,3,6,5,7-3[8:1],,4,,7,,1,,
{24}1x/4x,2x/5x,3x/6x,{16}4x/7x,,8h[8:2],,,,
4b,6,5,6,3b,5,4,5,{24}2b,3,4,5,6,7,{24}1b,2,3,4,5,6,
{16}1b,8,3,4,2h[8:1],,7,8,4,3,6h[8:1],,5,4,3,2,51,8,7,6,58,7,6,5,{12}41,2,3,{24}8,1,2,3,4,5,{16}6/1,,2,,3/8<5b[8:1],,1,,{24}4x/8x,3x,2x,{16}1x,,1hx[8:4]/6bx<4[8:2],,,,,,,,,,5x,6x,7x/8,1,2,3,45,6,7,8,
1/3v6[8:1],,,,8,,1<4[8:2],,,,4v7[8:1],,2,,8>5[8:2],,,,5qq2[8:3],,7,,1,,,,,,
(161){16},,8,7,
(157){16}65,,31,,
(146){16}52,,81,,
(123){24}52,63,74,85,,,
(91){16}
8hb[8:2]/5b,,,,
(163){24}
5x,6x,5x,6x,5x,6x,5x,6x,5x,6x,5x,6x,
A4,A7,D4,D7,A3,A6,D3,D6,A2,A5,D2,D5,
A1,A4,E2,E5,B2,B5,B3,B6,E4,E7,A4,A7,
,,,,,,
Cf/B2/B7/B4/B5/E1/A2/A7,,,,,,,,,,,,
5x,1x,5x,1x,5x,1x,5x,1x,5x,1x,5x,1x,
D5,D1,A5,A1,D6,D2,
A6,A2,D7,D3,A7,A3,
D8,D4,A8,A4,
E1,E5,B8,B4,
B7,B3,E7,E3,B6,B2,B5,B1,E5,E1,
Ch[8:8],,,,,,,,,,,,,,,,,,,,,,,,,,,,,,,,,,,,,,,,,,,,,,,,
{16}6,5,4,3,{24}4,5,6>3[24:34],,,,,,,,,,,,,,,
&inote_6=
