&title=百日草
&artist=Suara
&first=-0.2
&des=Azuki
&lv_5=11+
&inote_5=(80)
{1},
{4},,
{12},,,,8,,8h[12:3],,,1,2,3,
{12}4>1[4:1],,,4,5,6,7,8pp3[12:12],8,,,,
{12},,,8,7q5[12:3],6,5,,,,,,
{12}4h[12:2],,6h[12:4],5,7,8p4[12:2],1,,2h[12:6],,,3,
{12}1,8,7h[12:2],,5h[12:2],,4h[12:4],,,1<5[12:6],1h[12:4],,
{12},,,,,,,,2,,2h[12:3],,
{12},1,8,7,6pp5[12:5],,,6,5,4,3,2,
{12}1>7[12:11],,,,,,8,1p4[12:4],2,3,,,
{12},,,,8h[12:2],,2h[12:4],3,4,5p4[24:5],6,,
{12}7h[12:6],,,,3<3[12:11]*>3[12:11],3,3,,,,,,
{12},,,,,,,,2h[12:2],8-4[12:1],7,1h[12:5],
{12}8,,,3,8h[12:2],3,1h[12:2],3<6[12:1],8h[12:2],,,,
{12}7,7h[12:3],6,5p3[24:5],4,,,,1h[12:4],,3,3p6[24:3],
{12},,,,4h[12:3],5-1[12:1],7,6h[12:6],5,,,,
{12}8,8h[12:1],7h[12:2],,5h[12:2],,4h[12:2],,3h[12:2],,1h[12:2],,
{12}2>1[24:6],2,6h[12:3],,,,4h[12:3],,,1,2qq7[12:4]/3q6[12:4],,
{12},,,,,,,6/5pp7[48:5],5/4,4/3,5bqq3[48:5]/4,,
{12},6/5,6<1[48:5],,,3,3>5[12:3],,,5q3[12:2],5,4,
{12}3,4,5,,6h[12:4],,7,,2h[12:4],,1,,
{12}4h[12:2],,3,4>1[48:5],3,5,4b<7[48:5]/6,,,1/4,1>6[12:2],,
{12},1,8h[12:4],,,7,1h[12:2],2,6h[12:2],5,3h[12:2],,
{12}1,,2V47[12:2]/8,,,2/6,6V83[12:2],,,6/4,4,4>8[12:3],
{12},8,1<4[12:4],,,4,5>1[12:3],,,7,6<4[12:3],,
{12},4p6[12:2],4,5,6,5,4,,3h[12:4],,2,,
{12}7h[12:9],,8,,5h[12:5],,,,,,4/6,,
{12}3h[12:2]/5,,8h[12:3],,,4,5q7[12:5]/1q3[12:5],,,,,,
{12},,,,6,,6h[12:10],,,5,4,,
{12}3,,2,,1,,1s5[12:5],,,,,,
{12},,1b,,,,,,,,,,
