&title=POSTERGIRL (高能宣言)
&artist=三角洲行动; Peg Parnevik
&first=0
&des=Hope and Dreams
&clock_count=4
&lv_5=13+
&inote_5=(157)
{1},
{4}4h[8:4],,,,
{4}5h[8:4],,,,
{4}3h[8:4]/B7/E7,,,,
{8}6h[8:4],E3,,B1/E2,,B4/B3,,,
{8}5-8[8:1],,B3`B4,,,,B3`B4,,
{8}5-8[8:1],,B3`B4,,,,B3`B4,,
{8}6-3[8:1],,B8`B7,,,,E3`B3,,
{8}6-3[8:1],,B8`B7,,,,E3`B3,,
{8}4-2[8:1],4x,B6`B5,,,,B6`B5,,
{8}4-1[8:1],4x,E7`B6,,,,B6`B5,,
{8}4-8[8:1],4x,E6`A5,,,,E7`E6,,
{8}4-7[8:1],4x,,,6x,5x,4x-6[8:1],,
{8}1,2,3h[8:2],,7,6,5h[8:2],,
{8}2,2,3v2[8:1],,6,6,5h[8:2],,
{8}2,3,4h[8:2],,5,6,7h[8:2],,
{8}3,4,5^2[8:1],,6,7,8-4[8:1],,
{8}3,2,1-5[8:1],,5,6,7-4[8:1],,
{8}3,3,2h[8:2],,5,5,6h[8:2],,
{8}2bq5b[8:5]*>1[8:12],,,,,,,,
{1},
{8}1-5[8:1]/8,,12,,3/4-8[8:1],,45,,
{8}78,6,4/5-3[8:1],,5-7[8:1]/6x,,4x/5,,
{8}78,6,4^7[8:1]/5,,4^1[8:1]/3x,,4/5x,,
{8}12,3,4-8[8:1]/5,,74,6,5,,
{8}5-1[8:1]/4,,56,,7/8-4[8:1],,81,,
{8}34,2,8/1-7[8:1],,1-3[8:1]/2x,,8x/1,,
{8}34,2,8^3[8:1]/1,,8^5[8:1]/7x,,8/1x,,
{8}56,7,8-4[8:1]/1,,38,2,1,,
{16}7x,,1x/8x,,2^5[8:1],,1,,2/8xh[8:1],,,,6x,7x,8x,1x,
{16}2x,,8x/1x,,7^4[8:1],,8,,7/1xh[8:1],,,,3x,2x,1x,8x,
{16}7x,,5x/6x,,4^1[8:1],,5,,4/6xh[8:1],,,,8x,7x,6x,5x,
{16}4x,,5x/3x,,6^1[8:1],,5,,6/4xh[8:1],,,,2x,3x,4x,5x,
{16}6x^3[8:1],,,,C1,,,,1-5[8:1],,,,12,,,,
{8}6h[8:2],3,4-8[8:1],,54,,6-4[8:1],,
{8}1,2,3-7[8:1],,73,,6^1[8:1],,
{8}46,3,2,1^4[8:1],8,17,6,5,
{8}C1f,,,,4h[8:4]/5h[8:12],,,,
{1},
{1}Ch[8:4],
{16}6,5,7x,1bx,,,6,5,7x,1bx,,,35,,,,
{8}18,,7pp4[8:2],6,5h[8:2],,,,
{8}18,,2<5[8:2],3,4h[8:2],,,,
{8}35,,6v4^5-1[8:2],7,8h[8:2],,,,
{8}28,,3>6[8:2],4,5h[8:2],,,,
{8}18,7,16,2,38,7,1/6-3[8:1],,
{8}68,,1,2,3-6[8:1],,,,
{8}75,,4pp8[8:2],3,2h[8:2],,,,
{8}27,,1,8,1-5[8:1],,1,,
{8}47,6,25,3,47,6,2-5[8:1]/5,,
{8}28,,7pp3[8:2],6,5h[8:2],,,,
{8}35,,2,4,2-6[8:1],,2,,
{8}75,6,24,3,48,48,48,,
{8}7,6,5h[8:2],,3,2,1h[8:2],,
{8}7,7,6v1[8:1],,3,3,4h[8:2],,
{8}8,7,6h[8:2],,4,3,2h[8:2],,
{8}6,5,4^7[8:1],,3,2,1^4[8:1],,
{8}6,7,8p4[8:1],,4,3,2^5[8:1],,
{8}6,6,7h[8:2],,4,4,3,,
{1}7bpp2[8:12]/3bpp6[8:12],
{1},
{8}2-5[8:1]/6-1[8:1],,26,,8^5[8:1]/4^1[8:1],,84,,
{8}15,26,3^8[8:1]/7^4[8:1],,3q7[8:1]/7q3[8:1],,37,,
{8}48,37,6^1[8:1]/2^5[8:1],,6p2[8:1]/2p6[8:1],,62,,
{8}15,26,3h[8:1]/7h[8:1],,48,37,2h[8:1]/6h[8:1],,
{8}6-1[8:1]/2-5[8:1],,62,,4^1[8:1]/8^5[8:1],,48,,
{8}51,62,7^4[8:1]/3^8[8:1],,7q3[8:1]/3q7[8:1],,73,,
{8}84,73,2^5[8:1]/6^1[8:1],,2p6[8:1]/6p2[8:1],,26,,
{8}26,7,8-4[8:1]/1,,38,2,1,,
{16}6x,,4x/5x,,3^8[8:1],,4,,3b/5xh[8:1],,,,7x,6x,5x,4x,
{16}3x,,5x/4x,,6^1[8:1],,5,,6b/4xh[8:1],,,,2x,3x,4x,5x,
{16}6x,,8x/7x,,1^4[8:1],,8,,1b/7xh[8:1],,,,5x,6x,7x,8x,
{16}1x,,8x/2x,,7^4[8:1],,8,,7b/1xh[8:1],,,,3x,2x,1x,8x,
{16}7x-3[8:1],,,,C1,,,,2-5[8:1],,,,42,,,,
{8}7h[8:2],2,1-5[8:1],,81,,7-1[8:1],,
{8}4,3,2-6[8:1],,62,,7^4[8:1],,
{8}17,2,3,4^1[8:1],5,46,7,8,
{8}C1f,,,,
