&title=99 Glooms
&artist=Sta
&first=1.3
&des=
&des_5=Cactus
&lv_5=14+
&inote_5=(185){4},,,,{48}8b/1b,
2/7,3/6,5h[16:31]/4h[16:11],{4},,,{16},,{24},{4}B2/E2,
B4/E4,B1/E2/B2,B3/E4/B4,
{16}1,2,{8}3,{16}8,7,{8}6,3bz7[8:1]/4bs8[8:1],4/3,,,{4}4/5,
{8}4/5,3h[4:1],6,7h[8:3],2,1h[8:3],
,,5,4/6,4,5/3,7,6/4,
{4}4/5<5[1:1],{8}5,4,3,2,7,6,
{4}5<3[4:3],{8}1,8,,5,{4}4,
6b-8>1[8:1],{8}4,3-1<8[8:1],2,6,5p2[8:3],4,
,,,4h[8:1],,2h[8:1]/6h[8:1],,8b,
,,4-1[8:1],3,5-8[8:1],6,2-5[8:1],3,
6,6,7,7,{16}8/A1,D2,{8}A2,{16}5,4,3,2,
{4}1b,{8}2-7[8:1],7-3[8:1],2,6V48[4:1],,6/1,
,3,4-8-2[4:1],6,4,7-3[8:1],,4b/7,
,,4/5,4/5,3/6,3/6,2/7,2/7,
{12}8/1,7/2,3/6,4h[12:1]/5h[12:1],,3x/6x,{4}3x/6x,1-5[12:1],
2b,{8}6/4,7,3/5,2,{4}1-4[12:1]/8-5[12:1],
1b/8b,{8}2/8,3,1/7,6,{4}4-1[12:1]/5-8[12:1],
4b/5b,{8}2b/7b,2b/7b,,3bh[4:1]/6bh[4:1],,,3/6,
2/7,1/8,7/2,{32}3b,4,5,6,7,8,1,2,3x,4,5,6,7,8,1,2,
{4}3bx-7[8:1],3/5,6-1[8:1],6/4,
2-4[8:1],2/5,8-4[8:1],1/8,
{8}5/1b>3[8:1],2,{16}8,7,{8}6>4[8:1],7,{16}1,2,{4}3h[8:1],
{8}4/8,3/7,2/6,1/5,8pp4[4:1]/4pp8[4:1],8/4,{4}8b/4b,
{8},,2,7-1[8:1],4,7-5[8:1],3,7,
{4}1x-3[8:1],{8}1-7[8:1],6,1-5[8:1],4,1,8,
{4}3bxh[8:1]/7bxh[8:1],{16}2/6,1/5,{8}8h[16:1]/4h[16:1],{4}1h[8:1]/5h[8:1],{16}2/6,3/7,{8}4h[16:1]/8h[16:1],
3/7,7/3,6/2,2/6,1/5,8/4,{16}5b/1b-4[8:1],6,7,8,
{4}1x/4x,8-5[8:1],5,1-3<4[8:1],
2/1,8-6>5[8:1],8/7,1>2-4[8:1],
3h[8:1]/1<7-5>3[2:1],1/6h[2:1],{8},,,,2,
1,2,4,8,7,6,5,
{4}1xh[8:1],{8}8,8-4[8:1],,1<6[8:1],,1/3h[8:1],
{16},,7/1-5[8:1],2,{8}3,1,{16},,2,7,4,5,3,6,
{8}4,5,6,7,{16}3/8h[8:1],2,{8}1,{16}2/7,3/6,{8}4/5,
{16}3,6,4,5,3,6,2,7,1,8,1,8,1-5[16:1],1,1,1,
{4}Cf/1b>1[1:4],{16}B6,B7,B8,B1,,,,,B3,B2,B1,B8,
,,,,E7,B7,B8,B1,,,,,E3,B2,B1,B8,
,,,,E5,B5,B6,B7,,,,,E5,B4,B3,B2,
{1},{4},,,{12}6,
7,8h[6:11],
{1},,{16}1,
8,7,6,5,4,3,2,1,8,7,6,5/7bxh[16:1],4,3,2,
{48}8b/1xh[4:1],7,6,5h[16:3],,,,,,,,,,,,,,,1b/8xh[4:1],2,3,4h[16:3],,,,,,,,,,,,,,,8b/1xh[4:1],7,6,5h[16:3],,,,,,,,,,,,,,,1b/8xh[4:1],
2,3,4h[16:3],,,,,,,,,,,,,,,8b/1xh[4:1],7,6,5h[16:3],{4},{16},,{24},{48}2b/1h[4:1],
3,4,5h[16:3],,,,,,,,,,,,,,,1b/2h[4:1],8,7,6h[16:3],,,,,,,,,,,,,,,2b/1h[4:1],3,4,5h[16:3],,,,,,,,,,,,,,,1b/2h[4:1],
8,7,6h[16:3],,,,,,,,,,,,,,,,,,{16}1,8,1,{4}8h[32:5],
{48}7b/8h[4:1],6,5,4h[16:3],,,,,,,,,,,,,,,8b/7h[4:1],1,2,3h[16:3],,,,,,,,,,,,,,,7b/8h[4:1],6,5,4h[16:3],,,,,,,,,,,,,,,8b/7b,
1,2,3h[16:3],,,{4}8xw4b[8:1],{2}8b/Cf,
{48}1bx/8xh[8:1],2x,3x,4x,,,,,,8bx/1xh[8:1],7x,6x,{8}5x,{48}1bx/8xh[8:1],2x,3x,4x,,,,,,8bx/1xh[8:1],7x,6x,{8}5x,{48}1bx/8x<1[8:3],2x,3x,4x,,,,,,,,,{2}4bx/8bx,
{16}3,7,3,7,2,6,2,6,
{4}5/1v2-4[8:3],8h[16:1],7b,6h[16:1],
{8}3/5,{16}4,4,{4}4qq2q7[16:5],{16}8,7,6,5,{4}4h[8:1],
{8}8/4,1,2<8[8:1]/6>4[8:1],3/7,{2}2-5[8:1]/6-1[8:1],
{4}6-2[8:1],6/8b,6-2[8:1],8b/6,
{16}4,5,4,5,3,6,3,6,2,7,1,8,2qq5[4:1],7,1,8,
{96}2b/7b,A2f,{48}B2,{96},C,,B7,{48}E8,A8,D1,A1,{96}E2,B2,,,,,,,{4}A5f,{16}8,4,8,4,7,3,7,3,
{4}6-3[8:1],{8}6/8,1-5[8:1],,1/3,{4}2-7[8:1],
{8}5-8[8:1],5-2[8:1],,,,7/1,{4}7/1-5[8:1],
8b,{16}6b,4b,{8}4bq8b[8:1],3b,3b,,2bxh[16:1],
{16}8/1>4[16:3],7,6,5,{4}1/4h[16:7],{16}5,6,7,8,1-6[12:1]/5-2[12:1],2/6,3/7,4/8,
,,,,{8}1x>5[4:1]/5x<1[4:1],8/4,{2}1-6-4[4:1]/5-2-8[4:1],
{4},6/2h[16:1],7h[16:1]/3-7[8:1],5b/3,
{16}5,3,5,3,4,2,4,2,3,1,3,1,2qq5[4:1],1,8,7,
{96}6b/2b,A2f,{48}B2,{96},C,,B7,{48}E8,A8,D1,A1,{96}E2,B2,,,,,,,{4}A5f,{32}7b,6,{16}7,1,8,1,8,2,7,
{8}3b>8[12:1],4h[16:1],5b,6b,7<4[12:1],8b,1x-5[8:1],2h[16:1],
{4}1x<6[8:1]*>4[8:1],1xw5b[8:1],1b,3b/7b,
{8}6-1[8:1],6,6/2-7[8:1],2,2/8-5[8:1],8,8/3-8[8:1],3,
{4}3/7-4[8:1],7/3-6[8:1],3/5-8[8:1],5/2-5[8:1],
{8}2/7-3[8:1],7,7/1-5[8:1],1,1/8-4[8:1],8,{4}8/1,
{16}3,5,3,6,4,6,2,5,2,7,4,7,1,8,1,8,
{8}2>5[8:1],2,2/7-3[8:1],7,7/1-5[8:1],1,1/6<1[8:1],6,
{4}6/3q7[8:1],3/5p1[8:1],5/2p6[8:1],2/8q4[8:1],
{8}8/3>8[8:1],3,3/6<1[8:1],6,6/4-8[8:1],4,{4}5/4,
{16}6,5,6,3,4,3,7,6,7,2,3,2,8w4[8:1],8,8,8,
,,,,{4}6-3[8:1],2-7[8:1],8-4[8:1],
3-7[8:1],5-8[8:1],1b,3/6,
{8}4b/5b,{24}7x,8,1,{8}2h[8:1],{24}8x,1,2,{8}3h[8:1],{24}1x,2,3,{8}4h[8:1],{24}2x,3,4,
{8}5h[8:1],{16}7x,7,1,2,3,4,8,7,6,5,{4}1b,
{8}4b/5b,{16}7,5,{8}6,{16}2,4,{8}3,{16}8,5,{8}6,{16}1,4,
3bx,4,5,6,7,8,1,2,3x/7bx,8,1,2,3,4,5,6,
7x/1b,2,3,2,3,4,8,7,6,7,6,5,{32}2,3,4,5,6,7,8,1,
{16}2bx,6,3,7,4,8,3,7,{24}2bx,3,4,8x,7,6,1x,2,3,7x,6,5,
{1}4b/8bz4>4>2z6b[2:7],
{2},,5h[4:1],
6h[4:1],
7h[4:1],8h[4:1],
{4}4/B6,{8}5/B3,6,4/B6,3,5/B3,6,
{4}E7/B6/4-8[8:1],4/B3/E3,{8}2/E7/B6,1,7/B3/E3,8b,
{4}E7/B7,{8}6/B2/E3,6,5/E7/B7,5,4/B2/E3,4,
3/B7/E7,3,8/B2/E3/B3,8,{16}D8/1>5[4:1],A7,{8}1/D7,{16}5,6,7,8,
{4}1b/A5f,8/E4,2/E6,7/E4,
3/E6,6/E4,4/E6,5/E4,
4/E8,5/E2,3/E8,6h[16:1]/E2,
2/E8,7/E2,1/E8,8/E2,
7/E6/B6,1/B3/E4,8/B6/E6,2/B3/E4,
5/E8/B7,3/E2/B2,6h[16:1]/E8/B7,4/E2/B2,
{8}8b/7b,1/6,{16}3,4,{8}3,{16}1b/2b,3,4,5,7,6,5,4,
8,7,6,5,4/8,3/7,2/6,1/5,4,3,2,1,8-4b[16:1],7,6,5,
{4}8bx/Cf/4bx<1[4:1],1x>5[4:1],5x<1[4:1],1x>4[4:1],
4x<7[4:1],7x>2[4:1],2x>5[4:1],5x<5[1:1],
{1}Cf,
{8}1,2,3,4,5,6,7,8,
1b,{16}6,5,7,4,8,3,{8}1b,{16}3,4,2,5,1,6,
8b,1,2,3,1,8,7,6,4,5,4,5,{4}3b/6b,
{8}5x/4x,{16}3,4,2,4,{8}1,5x/4x,{16}6,5,7,5,{8}8h[8:1],
{16}1x,2,3,4,2x,3,4,5,{24}3x,4,5,6,7,8,{4}5b/1b<7[4:1],
7x<5[4:1],5x>3[4:1],3x>1[4:1],1x<6[4:1],
6x>3[4:1],3x>7[4:1],7x<3[4:1],3x>6[4:1],
6b<3b[4:3],4bh[2:1],{8},,,,6,
7,{16}1,8,{8}2,{16}5,4,{8}6,{4}3/7,
{32}1b,2,3,4,5,6,7,8,1x/7b,6,5,4,3,2x,1,8,3b/7x,4,5,6x,7,8,1,2,3bx/7bx,4x/8x,{16}1x/5x,{48},,,,,,{24}1,
8,1,8,1,8,2,7,2,7,2,7,{32}3,4,5,6,7,8,1,2,{4}7bx/A3f,
{16}7b-4[16:1],,,3b-8[16:1],,,{8}6b-1[16:1],{16},2b-5[16:1],,,{4}8b<1[4:3]*z4[8:1],
{1}8bx,
{16}6b/2h[32:5],,,4b/8h[32:5],,,{8}5b/1h[32:5],{16},3b/7h[32:5],,,{4}6b/2b-5[16:1],
{16}2b/7b-4[16:1],,,7b/2b-6[16:1],,,{8}2b/8b-4[16:1],{16},3b/8b,,,,,5,6,
7b/E6f/B6/B5,,,1b/E4f/B3/B4,,,{8}3b/E2f/B1/B2,{16},5b/E8f/B8/B7,,,,,2x,3x,
{48}8b,7,6,5h[16:9],,,,,,,,,,,,,,,1b,2,3,4h[16:3],,,,,,,,,,,,,,,{16}4b/5b,3/6,7/2qq5[8:21]*qq5[8:21],1/8,
E
