&title=Axium Divergence
&artist=ak+q
&first=0
&des=Attiesal
&lv_5=14
&inote_5=(170)
{4},,,,
{8}6,5,4,3h[8:3],,5h[8:2],,,6,5,4,3h[8:3],,5h[8:1],,,
{8}6,5,4,3h[8:3],,5h[8:2],,,6,5,4,3h[8:2],,C,,,
{8}7,6,4,3h[8:2],,E7,,,6,5,3,2,C,,,,3,4,6,7,E3,,,,Ch[4:3],,,,,,1-5b[8:1],,
{8}1b/7b,,46,3,2-4[8:1],5,2,6,7-3[8:1],,3,2<8[8:1],,7,7,6,5-3[8:1],,2,1,1-5[8:1],7,1,6,3<5[8:1],,6,7-4[8:1],,3,2-6b[8:1],7,2b,,7,8-4[8:1],1,8,2-5[8:1],6,2,,7p3[8:1],,73,2,1>5[4:1],,5<5[4:2]*<5[4:2],,C,,5<5b[4:2],,C,,5,,{32}D6,D7,D8,D1,D2,D3,D4,D5,{4}Chf[4:2],,
(172)
1b-7-2-5[4:5],{2},,{4},
{8}7,6,4,3,Chf[4:8],,,,,1h[8:2],,,8-2-7[4:2],,{2},{4},
(174)
{4}8b<6q2>4[4:4],,,,{8},{8},7,6,4,3,7,6,Chf[4:8],,,,7h[4:1],,,,8h[4:1],,,1h[8:4],,,,,
(177)
{4}8b<4[4:2],E3,B1/E2,E3,B1/E2/6h[4:1],E3,B1/E2/7h[4:1],E3,B1/E2/8h[8:2],E3,{12}7x/B1/E2,,6x,{8}E3,5x,5h[4:1]/B1/E2,,E3,6h[8:1],B1/E2,,C/7,,
(180)
{8}24,3,75,6,25,3,84,6,2x/4x,24,3x/5x,35,4x/6x,46,3x/7x,37,{16}2,4,3,7,5,6,4,5,3,4,2,6,5,7,1,8,1,8,1,8,{32}1z5-2-4[1.69##0.7]*s5-8-6[1.69##0.7],2,3,4,5,6,7,8,1,2,3,4,5bx,6bx,7bx,8bx,
(170)
{1}1bhx[4:2],{4},{8},
(180)
{8}1b-6-8[8:1],1,2,3b-8-2[8:1],3,4,5b-2-4[8:1],5,6,7-4-6[8:1],7,8,1b,1,2b/8b,,
{8}2b-5-3[8:1],2h[16:1],1,8b-3-1[8:1],8h[16:1],7,6b-1-7[8:1],6h[16:1],5,4-7-5[8:1],4,3,2b-6b[8:1],2,2b,,
{8}7b-5-8[8:1],7h[16:1],8h[16:1],1b-7-2[8:1],1h[16:1],2h[16:1],3b-1-4[8:1],3h[16:1],4h[16:1],5-3-6[8:1],5,6,7bh[4:1],,
{8}8h[16:1],8h[16:1],8b-2-7b[8:1],8,7,6b-8-5b[8:1],6,5,4b-6-3b[8:1],4,3,2b-4-1b[8:1],2,1,8b,8,1b/7b,,{16}6,5,6,5,{8}6b<1[8:1],5,4,3b<6[8:1],2,1,{16}8b,7,8,7,{8}8-4b[8:1],2/6,
(170){4}4/8b,,
(160)Ch[4:1],,
(150)6xp4b[4:6]`2xp8[4:6],,,,,,,,
(170)
{4}2v5[8:1]/6-1[8:1],2/6,{16}7xh[8:1],,1x,2,37,6,51,2,{8}3/7-4[8:1],4-8[8:1],7,2,{16}2xh[8:1],,8x,7,62,3,48,7,{8}6/1-5[8:1],5-3[8:1],1,7,{16}7,6,5,4,1,2,3,4,
{4}7-5[8:1]/5-1[8:1],75,{8}2xh[8:1],8h[8:1],6h[8:1],4h[8:1],2h[8:1],{16}8,7,62,3,48,7,{8}6/2x-5[8:1],5-1[8:1],2,7,
{16}7,6,5,4,1,2,3,4,6,7,8,1,4,3,2,1,
{8}8/7b,6,4/5h[8:1],3,7/C,6,5h[8:1]/3,2,7/C,6,5h[8:1]/3,2,1-5[8:1],8-6[8:1],1,8,1b-7-2-6-3-5b[4:2],,Chf[4:2],,,,,,
{8}1/6h[8:1],2,3/E1,2,1/6h[8:1],2,3/E1,2,
{8}1/6hb[8:1],2hb[4:1],7b,8hb[8:1],1hb[8:1],8b,8bh[8:1]/2b,1b,
{16}7,2,8,1,6,3,8,1,{4}8bw4[10:1],8b,
{4}2/7b,{16}2,1,3,1,{4}2b-6[8:1]*-5[8:1],2b,
{4}7/1b,{16}8,1,7,1,{4}8b-5[8:1]*-4[8:1],8b,
(165)
{16}3b,5,4,5,
(156)
{16}3b,6,4,5,
(148)
{16}3b,5,4,6,
(140)
{16}3b,6,4,5,
(132)
{16}3b,5,4,5,
(120)
{16}3b,5,4,6,
(108)
{16}3b,5,4,5,
(100)
{16}3b,6,4,5,
(90)
{4}3b<4-6<7-1>2-4<5-7>8-2>3-5<6-8>1-3[8:9]/6bh[8:11],,,,
(167)
{4},,,,
{8}6,5,4,3h[8:3],E7,,C,,E3/6,5,4,3,C,,,,3,4,5,6h[8:3],E3,,C,,E7/3,4,5,6,C,,,,
{8}3,4,5,6h[8:3],E3,,C,,E7/3,4,5,6,C,,,,
(170)
{8}E3/6,5,4,3h[8:3],C,,E7,,
(170)
{8}5s1[4:1]/4z8[4:1],,{2},{4}36,
{16}5h[8:1]/4,,,5h[8:1],,,5,,{4}5/3>1[8:1],{8},4,5h[8:3],,,4,6h[8:3],,,5,
{16}4h[8:1]/5,,,4h[8:1],,,4,,{4}4/3>1[8:1],{8},4,5h[8:3],,,4,6h[8:2],,4h[8:2],,
{16}5h[8:1],,,5h[8:1],,,5,,{4}5/6<8[8:1],{8},5,4h[8:3],,,5,3h[8:2],,4,{16}4,5,
{16}4h[8:1],,,4h[8:1],,,4,,{4}4/6<8[8:1],{16}6/5xh[16:1],,,,4xh[16:1]/2xh[16:1],,,,7xh[16:1]/5xh[16:1],,,,4,6,4,6,3,7,3,7,
{8}3b>7[4:1],7,6,5,4h[4:1],,8-2-4[4:1],8,4,5,6,7,8<4[4:1]/4h[4:1],,,3,2,1,8,7,7>3[4:1]/4h[8:1],,5,6,7-5b[8:1],4,7,3,3-1b[8:1],4,3,{16}7,6,{8}5-8[8:1],,1,,7/4h[4:1],6,5,3,24,,75,{16}3,4,{8}2-5[8:1],1,8-4[8:1],7,1,2,35,6,75,46,35,26,1-5[8:1]/7-3[8:1],,17,,{16}2-6[8:1]*-6[8:1],8,4,6,{4}2b`Cf,
{8}8-4b[8:1]/1,7,28,3,{16}2,1,3,8,4,6,2,,
{8}1-5b[8:1]/7,2,17,6,{16}8b,3,5,2,6b,1,7,,
{8}8-4b[8:1]/2,7,18,{16}2,2,{16}8,3,6,2,7,4,6,3,{8}8b-6-1b[8:1],8,1,2b-8-3b[8:1],2,3,5b,{16}6,4,
{8}7b-3b[8:1],,1/7,2,
{16}1,8,2,4,3,6,5,7,1,8,2,7,1,8,2,7,1b,2,3/7b,6,5/2b,3,4/8b,7,
{8}6/2b-6b[8:1],3,82,7,{16}8,3,6,2,7,7,4,4,8,5,6,6,1,5,3,3,
{16}7,1,8,8,6,2,{24}8,8,8s4-1-3b[4:14],
(160)
{4}8bz4-7-5[4:13],{1},,,{2},{4},
{8}6,5,4,3,{4}E7,,C,,E3,,
{8}6,5,4,3,{4}E7,,E3,,Ch[384:1],,
