&title=一千光年
&artist=いよわ
&first=0.862
&lv_5=1
&des_5=m
&inote_5=
(96){4},,,7<7[1:48],
{1}7h[1:1],
{16},,6,6,6,5,5,5,6,6,6,5,5,5,6,5,
6,5,6,6,6,5,5,5,6,6,6,5,5,5,4,6,
4,6,{8}6/5,6/5,5/4,5/4,4/3,4/3,5/4,
5/4,{16}3,4,3,5,4,5,2,4,2,5,2,3,4,5,
2,3b,{32},,6x,5x,{8}4x,3,3,5,5,4,
4,6,6,4,4,5,5,3,
{16},4h[8:1]/3h[8:1],,,,6h[8:1]/5h[8:1],,,,6h[8:1]/3h[8:1],,,,5h[8:1]/4h[8:1],,,,4h[8:1]/3h[8:1],
,,,6h[8:1]/4h[8:1],,,,5h[8:1]/4h[8:1],,,,,,,,,3,
3,3,3,{8}3,{16}3,3,{32}3,,,3,{16}4,3,{8}3,
{16},,6,6,6,6,{8}6,{16}6,6,{8}6,{16},6,{8}6,
{16},,4,4,4,4,{8}4,4,{16}4,4,4,4,{8}4,
{16}5,5,5,5,5,5,{8}5,{16}5,5,{8}5,{16}5,5h[16:3],,,,,,3,
3,3,,3,3,3,{8}3,3,3,
{16},,,6,6,6,{8}6,{16}6,6,6,6,6,6,{8}6,
{16},,,4,,4,{8}4,{16}4,4,{8}4,4,4,
{16},,,5,5,5,{8}5,{16}5,5,5,5,5,5,{8}5,
{16},4h[8:1],5,5,5,5,4,4,5,5,4,4,5,5,{8}4/3,
{16},,5,5,4,4,5,5,4,4,5,5,4,4,{8}5/6,
{16},,4,4,6,6,3,3,6,6,3,3,6,6,{8}5/4,
{16},,4,4,3,3,4,4,5,5,{8}6-3b[8:1],,6,
,3/4,4/5,5/6,4/5,{16}6,6,{4}6,
{16}6/5,4,{8}3/6,3/4,5/4,{16}6/5,4,4,4,4,,,5,
4/6,3,{8}6/2,5/2h[8:1],4,{16}6,6,{8}6,5,{16}3,3,
{8}4/3h[4:3],5,6,5,4,5,{16}6,,,4,
5,4,,3/4,{8}3,6/5,3/4,{16}5/4,5,5,,,4,
5,6/3,,,{8}4/3,6/5,5/4,{16}4,4,4,4,,5,
4,5,{32},,3,3,{16}3,4,{32},,6,6,{16}6,5,{32},,3,3,,4,,4,,,{16}2/6,
3,4/5,,4,4,6h[8:1],,5,6,{32}4,5,,,,,,,,,,,,,,,{16}4/3h[8:1],
,4,,5/6h[8:1],,5,,5/3h[8:1],,5,,4/6h[8:1],,4,
,5/4h[8:1],,5,,2/5h[8:1],,2,3,4/5,,,{8}3,3,
{16},4/3h[8:1],,4,4,5/6h[8:1],,5,5,4/5h[8:1],,4,4,5/4h[8:1],,5,
6,4/6h[8:1],,4,3,5/3h[8:1],,5,4,5h[16:15],,,4,4,4,4,
4,4,4,4,4,4,4,4,{4}4,{16}4/3h[4:3],4,4,4,
4,4,4,4,4,4,4,4,{4}4,{8}5/4h[16:1],6/5h[16:1],
5/4h[16:1],4/3h[16:1],5/4h[16:1],4/3h[16:1],5/4h[16:1],6/5h[16:1],5/4h[16:1],4/3h[16:1],
5/4h[16:1],{16}4/3h[8:1],4,5,5,,5,3,5,{32},,,,4,5,{16}4,{32}4,5,{16}4,
{32}4,5,{16}4,{32}4,5,{16}4,{32}4,5,{16}4,{32}4,5,{16}4,{4}4,{32}4,4,{16}4,{32}3,3,{16}3,
{32}4,4,{16}4,{32}3,3,{16}3,{32}4,4,{16}4,{32}3,3,{16}3,{4}4,{32}3,3,3,3,3,3,3,3,
3,3,3,3,3,3,3,3,3,3,3,3,3,3,3,3,{8}3,3/4h[16:1],5/6,4/3,
6/5,4/3,6/5,{16}4/3,5,{4}6/4,{32}5,5,5,5,5,5,5,5,
5,5,5,5,5,5,5,5,5,5,5,5,5,5,5,5,{4}5,{32}3,3,3,3,3,3,3,3,
3,3,3,3,3,3,3,3,3,3,3,3,3,3,3,3,{4}3,{32}1,1,1,1,1,1,1,1,
1,1,1,1,2,2,2,2,2,2,2,2,2,2,2,2,2,2,2,2,1,1,1,1,1,1,1,1,1,1,1,1,
1,1,1,1,1,1,1,1,1,1,1,1,1,1,1,1,{8}1,D1/A8/D8/E8/B8/E1/A1/D2/A7/D7/E7/B7/B1/E2/A2/B2/C/A6/B6/E6/B5/B3/E3/D3/B4/D6/E4/A3/E5/A5/A4/D4/D5,
E
&lv_7=1
&des_7=m
&inote_7=
(96){4},,,5-1-5[1:49],
{1}5h[1:1]/4h[1:1],
{16},,4,3,2,6,7,8,4,3,2,6,7,8,3,7,
4,6,2,3,4,8,7,6,2,3,4,8,7,6,3,6,
2,7,{8}2-4[0.3125##0.15],2,8-6[0.3125##0.15],8,2-5[0.3125##0.15],2,8-5[0.3125##0.15],
8,2>4[0.3125##0.15],8<6[0.3125##0.15],2-4[0.3125##0.15],8-6[0.3125##0.15],2>4[0.3125##0.15],8<6[0.3125##0.15],{16}2,3,
4,5,{32},,7x,6x,{8}5x/4x,5-7[0.3125##0.15],5,5-3[0.3125##0.15],5,5-7[0.3125##0.15],
5,2-4[0.3125##0.15],2,8-6[0.3125##0.15],8,3-5[0.3125##0.15],3,7h[8:1],
{16},5h[8:1]/6h[8:1],,,,4h[8:1]/3h[8:1],,,,2h[8:1]/8h[8:1],,,,8h[8:1]/7h[8:1],,,,5h[8:1]/4h[8:1],
,,,6h[8:1]/3h[8:1],,,,5h[8:1]/4h[8:1],,,,,,,,,4,
3,2,2,{8}2,{16}2,4,{32}2,3,{16}2,4,4,{8}4,
{16},,7,6,8,6,{8}8,{16}7,7,{8}7,{16},8/6,{8}8/6,
{16},,7,6,5,4,{8}4,6,4h[4:1],{16}6,6,{8}6,
{16}4,3,2,2,2,2,{8}8,{16}8,2,{8}3,{16}8,8,,,,,,4,
3,4h[8:1],,3,4,3,{8}4,2-4[0.3125##0.15],2,
{16},,,6,7,8,{8}6,{16}8,6,8,6,8,6,{8}8,
{16},,,5/6h[16:3],,4,4,6,4,6,{8}4,6-8[0.3125##0.15],6,
{16},,,2,8,2,{8}8,{16}2,2,2,8,2>4[0.3125##0.15],8,{8}2,
{16},4h[8:1],,6,7,8,1,2,3,4,3,4,3,4,{8}3,
{16},,3,4,3,4,3,2,1,8h[8:1],,2,2/8,3/7,{8}6/4,
{16},,4,6,4,6,4,6,4,3/7,3/7,3/7,4/6,4/6,{8}4/6,
{16},,4,4,4,3,3,3,4>7[0.3125##0.625],4,{8}4,{4}7>3[0.3125##0.3125],
{8},6<1[0.3125##0.15],6/3,4>1[0.3125##0.15],4/7,{16}8,7,{4}6h[4:1],
{16}3,3,{8}3-1[0.3125##0.15],3,6-8[0.3125##0.15],{16}6,2,2,3,4,,,4,
4,2,{8}8h[16:3],{16},2h[16:3],,,7,8,{8}1>3[0.3125##0.15]*<7[0.3125##0.15],1,{16}4x/6x,7/3,
8h[4:3]/2h[4:3],,,,,,,,,,,,,,,8,
7/3,6h[16:13],{8}4-2[0.3125##0.15],4,4-2[0.3125##0.15],4,4-2[0.3125##0.15],{16}4,,,2,
3/8,6/4h[16:13],,,{8}6,7,8,7,6,7-1-3[0.3125##0.3125],
{16}7/4,{32},,,,3x,4,{16}2,2,{32},,6,8,{16}7,7,{32},2,8,2,{16}8,1,,1,
1,2h[16:3],,7,7,6/3h[8:1],,4,4,{32}3,4,,,,,,,,,,,,,,,{16}2h[8:1]/1h[8:1],
,,,8h[8:1]/7h[8:1],,,,6h[8:1]/4h[8:1],,,,3h[8:1]/2h[8:1],,,,7h[8:1]/6h[8:1],
,,,8h[8:1]/1h[8:1],,,,7h[8:1]/2h[8:1],,,,,,,,3h[8:1]/6h[8:1],
,,,4h[8:1]/7h[8:1],,,,6h[8:1]/2h[8:1],,,,3h[8:1]/8h[8:1],,,,2/6h[8:1],
,2,3,4,,2<5[0.3125##33.5938]/2<5[0.3125##33.5938],6,2h[16:7]/4h[16:7],,,,,,,,,{8}4/3,
3/2,1/2-4[0.3125##0.15],{4}2,{8}4/3,3/2,
2/1,1/8,8/7,7/8-3[0.3125##0.15],{4}8/7,{8}4/3,4/3,
4/3,4/3,4/3,4/3,4/3,4/3,4/3,4/3,
4/3,{16}3/4h[16:3],2,1,1,,4>5b[0.3125##22.0312],3,4h[16:15]/3h[16:3],,,,,{8}2,
1,1,1,1-3[0.3125##0.15],{4}1,{8}4/3h[4:3],2,
1,8,7,7-1[0.3125##0.15],{4}7,{8}2/1,1/8,
7/8,8/1,2/1,1/8,8/7,8/1,2/1,1/8,
8/7,8/1,2/1,1/8,{4}8/7,{8}8/7h[8:7],1,
2,3,4,3-1[0.3125##0.15],{4}3,{8}4/2h[8:7],3,
1,3,1,8v3[0.3125##0.15],{4}8,{8}4/3h[16:1],3/2h[16:1],
2/1h[16:1],1/8h[16:1],8/7h[16:1],8h[16:1]/7h[16:1],8h[16:1]/7h[16:1],8/7h[1:1],1,2,
3,3,3,2,1s5[0.3125##0.15]*-5[0.3125##0.15],1,{1},,,,,{4},{1}5,
E
