&title=Pont des souvenirs
&artist=VeetaCrush,itsu
&first=0
&des=ClaudiaDean
&des_4=
&des_5=ClaudiaDean
&lv_4=1
&lv_5=14
&inote_4=(190)
E
&inote_5=(190){4},,,,{1}7x-3[4:15],
,,,2pp4q8[4:15],
,,,7p5p1[4:15],
,,,6<3[2:3],
,3h[2:1]/7h[1:1],
6qq8[2:1],
{8}1/8h[4:3],,,3,,,{4}5,
{2}4/7h[2:1],{4}3,2/6,
{8}1h[1:1],,,6,,,{4}5,
{2}4h[2:1],8h[2:1],
{8}2,,,7/1,,,{4}6/3h[4:1],
4h[4:1],{8}3,4,{4}2h[8:3],{8}3,4,
2,5,3,6,4,7h[4:1],6,5,
{16}E7,E6,E5,E4,E3,E2,E1,E8,B2,B3,B4,B5,B6,B7,B8,B1,
{8}5/2xh[4:3],,,6,,,{4}7,
{2}8h[2:1],{4}2,7/1-5[8:1],
{8}1/6h[4:3],,,4,,,{4}3,
{8}3/5h[8:1],2,2/6h[8:1],1,1/7h[8:1],2,2/8h[8:1],3,
1/4h[8:3],,,7,,,{4}6/3,
5h[2:1],{8}4,3,{4}2h[2:1],{8}8,8,
7,3,6,4,5,4h[4:1],,7,
{16}7,6,5,4,1,2,3,4,1,8,7,6,{8}5/1-5[8:1],3,
{4}1b,{8}6,4/7-5[8:1],,7,3,2,
{4}1>4[8:1],{8}1/5,6,{4}7-3[8:1],7/4-1[8:1],
4,{8}2,3h[8:3],,8,7,6,
{4}1-4[8:1],8/1-6[8:1],3/1-4[8:1],1/7,
5<8[8:1],{8}5/1,2>4[8:1],,2,1<6[8:1],3,
{4}1,{8}4,5,{4}6h[8:3],{8}3,3,
6,6,2,3,5,4,8,1,
{16}2,8,6,4,7,3,6,4,7,2,6,4,{8}5,3/7,
{4}1h[4:1],{8}6,1h[4:1],,8,7,2,
3/6-1[8:1],5,{4}6/4,8/3,{8}4/7,{16}6,4,
{4}5-7[8:1],5/3,{8}2/8-5[8:1],1,8,1,
{4}5x/2-5[8:1],2/1,{8}8,7,6,5,
{4}4<7[8:1],4/1,{8}2,3,4/8-5[8:1],3,
{4}8/2-5[8:1],2,6/4,{8}3/5,{16}2,4,
{8}2,2,5,5,3,3,6,{16}4,5,
4,6,5,7,4,5,3,6,5,7,4,5,3,6,5,7,
{4}4-1[8:1],{8}4,8-5[8:1],,8,2,3,
4/5,6,{4}7v4[8:1],7/3-8[8:1],3,
{16}1h[16:3],,,3h[16:3],,,{8}5h[8:1],{16},1h[16:3],,,{8}7,8,
1/5,{16}3,7,{8}3,3,4/6-1[8:1],3/7,4/6,{16}2,3,
{4}4,{8}4,4,7,6,{4}5/1<6[8:1],
1,{8}5/3,3,1/4,1,5/3,3,
8/5,8,4/7,4,6/3,2,5/4,6,
{16}3,5,3,5,4,6,4,6,4,5,3,6,5,6,4,5,
4-6[8:1]*-2[8:1],4,4,4,{4}4,1/7,{8}8/2-5[8:1],8-4[8:1],
2/7,8,{4}3,5/7,{8}2/5,{16}3,4,
{4}3-1[8:1],3/6,{8}8/7<4[16:1],8,7/8,1,
1,6,5,2,3,7,8,1,
2,2,{16}8,1,8,1,8,2,7,2,7,2,6,3,
6,3,6,4,5,4,5,4,{4}3/6,{8}4/7,{16}6,5,
{8}6,4/5,3,2,1,8,1,{16}8,7,
(95){2}8w4[16:1],B7,
B8,B1,
B2,B7,
B8,B1,
B2,B6,
B5,B4,
B3,B6,
B5,B4,
B3,7h[2:1],
8h[2:1],1h[2:1],
2h[2:1],7h[2:1],
8h[2:1],1h[2:1],
2h[2:1],6h[2:1],
5h[2:1],4h[2:1],
3h[2:1],6h[2:1],
5h[2:1],4h[#1.263153],
(190){1}Ch[4:3],
{4}7b/8-3[8:1],{8}8,5h[4:1],,3,4/6,5/3,
{4}2/4<6[8:1],{8}4,3h[8:3],{32},,,,7,6,{16}5,,,{8}3,
{4}1/8,{8}7/8,6/1,,2,6-3[8:1],3,
{4}7/6,{8}1,2/4,{32},,,,1,2,3,4,{8}5V31[8:1],7,
{4}5/6,{8}8/7,1-6[8:1],,1,8w4[8:1],7,
{4}8,{8}6/2,1/7,{24},,,8,1,8,{8}1,7/2,
{16}4h[16:3],,,6h[16:3],,,{8}5h[16:3],{16},4h[16:3],,,{4}3h[4:1],
{16}2,1,8,7,1,8,7,6,8,7,6,5,{8}8/4-1[8:1],1,
{4}4/6,{8}7h[8:5],4,,4,5,6,
{4}8>3[8:1],{8}8,7h[8:3],{32},,,,3,2,{16}1,,,{8}7/1,
{16}8h[16:3],,,7,,,{8}6,{16}1h[16:3],,,2,,,{8}3,
{4}1<6[8:1],{8}1,2h[4:1],{24},,,1,2,1,{8}2,8,
{4}3/7h[4:1],{8}4,4h[8:3],,,6,3,
2-8[8:1],5,2-5[8:1],7,2,{32}8,7,{16}6,{8}1,2,
{16}3h[16:3],,,5h[16:3],,,{8}3h[16:3],{16},6h[16:3],,,{8}4h[8:1],8,
{16}6,5,6,2,5,4,5,1,{8}4,3,2/5-8[8:1],3,
{4}5b/1h[4:1],{8}7,6-3[8:1],,6,1,2,
{4}3-7[8:1],{8}3/5,6h[4:1],{32},,,,8,1,2,3,{8}6/4-8[8:1],7,
{4}4/5h[4:1],{8}1,6h[8:3],1,8,7>2[8:1],6,
{4}7,{16}3,6,3,6,3,6,{24}4,5,4,{8}5,3/6,
8/1s5[4:1],{16},,,,B2,B3,{8}E4,6,6,7,
{4}8/4h[4:1],{8}7,3h[8:3],{32},,,,6,5,{16}4,,,{8}3,
{16}2/1,,,6/4,,,{8}5/8,{16}6/4,,,3/4,,,{8}2/7,
{16}2/6,,,3/1,{8}1,2/5,8w4[8:1],7/1,{4}8b,
2/1-6[8:1],{8}1,4h[4:1],,6,5/3,4/6,
{4}7/5>3[8:1],{8}5,6h[4:1],{32},,,,1,2,3,4,{8}5/6,{16}6,5,
8,,,1,,,{8}2,{16}8/1,,,7,{8}7,{16}3,4,
3,4,3,4,{8}2/5,{16}7,8,6,1,7,8,6,1,1,5,
{4}5<8[8:1],{16}5/2,2,,,{8}8x,8,{16}7,4,6,5,
6,4,7,4,7,3,8,3,{8}8,{32}1/7,2/6,{16}3/5,,,{8}4/3,
{4}2/5,{8}8/7,6b/1b,{16},,,,1/5,2,3,4,
5/1,2,3,4,5/1,6/2,7/3,8/4,{8}1/5,{24}1,5,1,5,1,5-2b[0.5789##0.2105],(95)1-6[16:1],
E
