&title=观鸟的水母
&artist=TN163 feat.海伊
&first=0
&des=十_夜_
&lv_5=13+
&inote_5=(239.9)
{1},
{12},,,,,5,4,,,6,,,{4}3h[4:1],4,6h[4:1],5,
{12}3,5,4,6,,,{32},4,,,,,5,,,,,,,,3h[32:11],,
{8},,{32},6,,,,4,,,,5,,,,3,,,,,,,,6h[48:11],,,,,,,,,,,,6,,,,,,,
{32},,,,,4,,,,5,,,,,,,,
{8}2,5,4,5,7,5,4,5,3,5,4,5,6,5,4,5,{32}3,,,,3,,,,
{12}6,5,4,{32}3,,,,5,,,,4,,,,6,,,{24},3,,,8,,1,,,,6,,2,,,,2,,7,,,,7h[3:1],,
{8},,6,,3h[4:1],,4,,6h[4:1],,7,,4h[4:1],,3,,46,,57,,
{12}3,,5,,,4/2h[12:4],{8},,,,35,,46,,7/5,,18,,2/4,,18,,
{12}7h[4:1]/5,,,1,,4,8,,5,1,,37,,,6,5,,3,4,,7,5,,1b,,,,,,,,,,,,,
{4}3h[2:1],4,5h[2:1],4,3h[2:1],4,5h[2:1],4,2h[2:1],4,5h[2:1],4,
{12}2,,2,4,,4h[3:1],,,,5,,,
{4}6h[2:1],5,4h[2:1],5,6h[2:1],5,4h[2:1],5,7h[2:1],5,4h[2:1],5,7h[2:1],5,3h[2:1],5,
{4}6h[2:1],5,3h[2:1],4,6h[4:1],8,3h[4:1],1,7h[2:1],8,2h[2:1],1,6h[2:1],5,3h[2:1],4,
{4}6h[2:1],4,3h[2:1],5,6h[4:1],4,{16}3,,5,,,,26,,,,,,
{12}5,6,7,1,2,3,7,6,5,3,2,17,,,,,,,,,,
{12}3h[4:1]/4,,,1,,,5h[4:1]/6,,,8,,,3h[4:1]/4,,,1,,5,6h[4:1],,,8,,,
3h[4:1]/4,,,1,,5,6,,6,8,,,{8}3h[8:1],1,5h[8:1],7,3h[8:1],1,,,
{12}5/6h[4:1],,,1,,,4h[4:1]/3,,,8,,,6h[4:1]/5,,,2,,,4h[4:1]/3,,,7,,,
6h[4:1]/5,,,1,,,4h[4:1]/3,,,8,,,65,,7,8,,5,4,,1,2,,,
{12}3h[4:1]/4,,,8,,,5h[4:1]/6,,,1,,,4h[4:1]/3,,,8,,,6h[4:1]/5,,,1,,,
3h[4:1]/5,,,8,,,6h[4:1]/4,,,1,,,3h[4:1]/4,,,8,,,6h[4:1]/5,,,1,,,
2h[12:5]/4,,,,,1,3,,,4,,,7,,8,6,,,5,,,,,1,8,,2,4,,1,8,,5,7h[4:1],,,
3,,5,1,,7<3[3:1],,,,,,,2b-5[4:1]*V84[8:3],,,,,,,,,,,,6b-1[4:1]*V48[8:3],,,,,,,,,
{16}2b<7[4:1],,,,,,,,,,,,,,7b/5,,,,2b/4,,,,4/5bv4[4:1],,,,1,,,,,,8b-3[4:1],,,,,,,,
{12},,,,,4,8,,,6,,3,4,,6,5,,,,,8,2,,,5,,,,,1,7,,,4,,4,5,,5,4,,,
{12}6h[4:1]/5,,,8,,,4h[4:1]/3,,,1,,,6h[4:1]/5,,,8,,4,3h[4:1],,,1,,,
6h[4:1]/5,,,8,,4,3,,3,1,,,{8}6h[8:1],8,4h[8:1],2,6h[8:1],8,,,
{12}4/3h[4:1],,,8,,,5h[4:1]/6,,,1,,,3h[4:1]/4,,,7,,,5h[4:1]/6,,,2,,,
3h[4:1]/4,,,8,,,5h[4:1]/6,,,1,,,34,,2,1,,4,5,,8,7,,,
{12}6h[4:1]/5,,,1,,,4h[4:1]/3,,,8,,,5h[4:1]/6,,,1,,,3h[6:1]/4,,8,1,,,
6h[4:1]/4,,,1,,,3h[4:1]/5,,,8,,,6h[4:1]/5,,,1,,,3h[6:1]/4,,8,1,,,
{1}6pp6[2:1],2pp2[2:1],{12}8,,2,4,,1,8,,5,7h[4:1],,,4,,5,3,,6,,,,,,
(48.11)
{12}2<3[6:1],,8,6,,7pp3[24:5],3q5[24:5],,,,,,
7<3[8:1],,1,3q8[8:1],,2qq6[24:5],3q5[24:5],,,,,,
7>6[6:1],,1,3,5,2qq7[24:5],5p4[24:5],,,,,,
2>6[8:1],,8,6>2[8:1],,7qq2[4:1],6<4[4:1],,,,,,,,,
