&title=Glitch N Ride
&artist=Eagle
&first=1.87
&des=killermatt
&lv_6=15
&inote_6=(150){4}1<4[4:4]/2h[4:6],,,,,,Ch[4:2],,
{4}8>5[4:4],,,7h[4:3],,,Ch[4:2],,
D1h[4:3],,,5h[4:11],,,,,A4hf[4:6],,,,,,{32},A3,A2,A1,A8,A7,A6,A5,A4,A3,A2,A1,A8hf[8:1],,,,
2,3,4,5h[8:3],,,,,,,,,1,2,3,4h[32:9],,,,,,,,,8,1/5,2/6,3/7v5<2[32:13],{8},,,,,A4f/E5h[8:1]/E4h[8:1],A6f/E6h[8:1]/E7h[8:1],1b,,
{32}2/5,1,8,7,6h[8:3],,,,,,,,7,8,1,2,3h[4:1],,,,,,,,2,1,8,7,6-8-5-1b[8:3],5,4,3,
{16}2h[8:2],,,,,,2,3,4,,4,,3b/5b,,,,
{16}D4hf[4:4]/E4f/5,,2,B4,,6,B3,,1,B4,,7,B3,,8,,
{32}7,6,5,4,3,2,1,8,{8}3-8-3b[4:1]/7-4-7b[4:1],,Cf,Cf,,,
{16}D6hf[4:4]/E6f/4,,7,B5,,3,B6,,8,B5,,2,B6,,1,,
2hb[4:1],,,,8z4[16:1]*-5[16:1],,,,B8f,,,2b/7b,,,3b/6b,,
{16}4-8[8:1]/5,,5,5,4,,5,,3>8[8:1],,4,4,3,,4,,2v5[8:1],,3,,2/8-4[8:1],,6,7,8/1-5[8:1],2,,2,1b/8b,,7,7,
3,,2,,1,8,,7,6,,5,,4,3,,2,
1bh[8:1],,2bh[8:1],,3bh[8:1],,4bh[8:1],,5bh[8:1],,6bh[8:1],,{32}E8f/A7/B7,B8,B1,E2,A2,,,,
{4}8p2>1[4:2],,1<5q3p5b[4:3],B4h[4:3]/Cf,,,Cf,,
1-6-2V48[4:2],,8V62V47-3-8b[4:3],B5f/A5h[4:3],,,B5f,,
2<6<2>6>2[4:4]/B8hf[4:2]/Cf,,C,,2<2b[4:2],,B8h[4:1]/A8f,,
7>3>7<3<7[4:4]/B1hf[4:2]/Cf,,C,,7>7b[4:2],,B1h[4:1]/A1f,,
{16}2,8,6,8,1-5[8:1],8,7,8,1b,,,,7,8,7,8,7,7,7,7,7>2[8:1],6,7,6,7b-3[8:1]*-4[8:1],,,,,,,,
2,8,1,3,1,8,4,8,1,5,1,8,{24}6,,7,6,7,,1,,8,1,8,,2,,3,2,3,,{6}1b,2b/8b,3b/7b,
{24}64,7,8,1,2,3,4/8qq4[4:1],7,6,5,4,3,
{8}A2f/D2h[4:1]/D3h[4:1],,,,
{16}78,,,46,,45,,3,1/2-7>8-3[12:3],,,,6,,5,,
4,4,5,4,4<2V86[8:4],3,4,4,A5/E5f/D5/B5,,,,3,,4,,
5,5,4,5,5>5>1[8:5],6,5,5,A4/E5f/D5/B4,,,,,,,,
{32}8/D5,7/D4,6/D3,5/D2,4h[8:3]/D1h[48:27]/E1f,,,,,,,,,,,,{8},{16},{32}E4/B3,E5,{96}E6,,,E7,,,E8,,,,E1hf[48:8],,,,,,,,E2/A2,,,E3,,,
E4,E5hf[32:3],,,,,,,,,,,D7/E7,,,,,,E6,,,,,,{32},D3,{16}E4/A3,,,Cf,{32},,{16},,,,,,
(100){64}8,7,6,5,4,3,2,1,{48}8,7,6,5,4,3,{32}2,1,8,7,{24}6,5,4,{16}3,2-6b[8:1],,{24}5,46,37,82,,1,,,A2h[48:50],A3h[48:48],A6h[48:46],A7h[48:44],{48},,,,,,,,,,,,,,,
(50),,,,,,,,,,,,{32},,,,,,,,
(120){4}4-1b[8:1],5-8[8:1],
(240)4>2[8:1],{8}4<7[8:1],
(100),
(120){4}1-4b[8:1],
(270)8<5[8:1],8,1>4[8:1],
(140)1-5b[8:1],
(280)8<6[8:1],8,
(30)1w5[24:1],
(100),
(130)2,
(170)3,
(190)4,
(200)5,
(210)6,
(220)7,
(230)8,
(240)1-5[8:1],
(250)2-6[8:1],
(260)3-7[8:1],
(270)4-8[8:1],
(280)5-1[8:1],
(290)6>3[8:1],
(300)7,8b,
(216){24}1>4b[8:1],,,,5,,6,,7,,8,,1<6[8:1],,,,E5,,,,E3,,,,
1,,3,,1,,8,,6,,8,,27,,,,3,,6,,45,,,,
2,,1,,2,,4,,3,,5,,4,,,,36,,,,27,,,,
1,,8,,1,,7,,5,,6,,4-1[8:1],,,,,,Cf,,,,,,
8<5b[8:1],,,,4,,3,,2,,1,,8>3[8:1],,,,E5,,,,E7,,,,
8,,6,,8,,1,,3,,1,,27,,,,36,,,,4,,5,,
E1,,,,7,,,,6,,5,,C,,,,82,,,,3,,3,,
E5,,,,17,,,,E3fh[12:5]/B2h[12:5]/B3h[12:5],,,,A1f,A8,A7,A6,A5,A4,,,,,,,
(108){24}8b,,,1,8,2,1b,,82,,73,,
4b,6,5,6,4,6,5b,,46,,8,1,
7b,1,,8,1,8,2b,8,,1,8,1,6b,1,8,1,8,8,3b,,5,4,6,5,
8b,,2,2,3,,1b,,27,,36,,4b,5,5,5,4,5,5b,,45,,5,4,
7b,6,,8,1,8,2b,3,,1,8,1,{32}6b,7,8,1,2,3,4,5,{48}3b/6,2,1,8,7,6,5,4,3,2,1,8,
{1}7h[4:2]/B5hf[4:2]/Chf[8:6],
(175){1}E3h[8:5],
{4}E1f/A8h[4:1]/2>8b[4:6],,1bh[4:6],,,,,,
{16}8,1,7,1,6,1,5,1,4,8,3,8,2,8,1,8,
{8}1b,2b/1,3b/2,4b/3,5b/4,6b/5,{24}7<4b[8:1]/8,1,2,3h[8:1]/Cf,,,
{16}7b,,2,1,2,,7,8,7-4[8:1],,4<5-8b[8:1],,7,,1,,
1-6[8:1],2,3,4,5-2[8:1]/1,,4,,5/8-4[8:1],,7<5b[8:1],,8b,,7b,,
1,8,3,4,2,,6,5,7,,4,5,3,6,2,7,
1b/8bh[4:1],,,,6-1[8:1],5,4,3,2b-6[8:1]/6-3[8:1],,,,Cf/E5,,,,
8,7,8,7,8-4b[8:1],,8,1,8b,,2-6[8:1],2,8,8,2,,
7,7,1,1,5,5,3,3,8,,{32}4,3,5,6,3,2,6,7,2,1,7,8,
{16}Cf,,8,6,8,,1,3,1,,7,5,7,,2,4,2-5[8:1],1,3,8,2pp8b[8:3],,,1,2b,,,,A7,A6,A5h[8:7]/B5f,,
{8}4/B5,B5/3,B5/2,B5/1,B5/8,B5/7,B5/6,A4h[8:5]/B4,
5/B4,B4/6,B4/7,B4/8,{32}1b-3[8:1]*-4[8:1]/B4,8,7,6,5,,,,,,,,,,,,
{32}81,7,6,5,4,3,2,1,82,3,4,5,6,7,8,1,26,5,4,3,2,1,8,7,46,5,6,7,8,1,2,3,
6,5,4,4,5,6,3,4,5,5,4,3,7,6,5,5,6,7,2,3,4,4,3,2,8,7,6,5,1,2,3,4,Cf,,,,
