&title=μ3
&artist=水野健治 VS 穴山大辅
&first=-0.52
&des=Ebenholz
&lv_5=14+
&inote_5=(192){4},,,,{48}8b/1b,
2/7,3/6,5h[16:7]/4>6<4[16:55],{4},,,{16},,{24},{1}5h[2:1],
5h[2:1],
6h[2:1],
{2}7h[2:1],1h[2:1],
{1}5<3>5[2:5],
4h[2:1],
3h[2:1],
{48}2b/1b,3/8,4/7,5h[16:7]/6<3[16:23],{4},,,{16},,{24},{1}4h[2:1],
{48}7b/8b,6/1,5/2,4/3>6[16:19],{1},{4},{16},,{24},{2}C,
{8}4h[4:1]/2h[4:1],,,3h[4:1]/5h[4:1],,,{4}6h[4:1]/4h[4:1],
{8},7h[4:1]/3h[4:1],,,8h[4:1]/2h[4:1],{16},,,,1,2,
3,4,2,3,4,5,3,4,5,6,4,5,6,7,{8}8b,
,,,,,,,,3h[4:1],
4h[4:1],,2,4,3,4,1,
5,4,6,5,8,2h[4:1],{24}3,4,5,6,7,8,
{8}1,3,4,2,6,4,7,5,
6h[4:1],4h[4:1],,6,3,5,2,4,
{4}5-8b[8:1]/1>4[8:1],5b/1b<6[8:1],{2}1b,
{4}2b-5[8:1]/6b-1b[8:1],6b/2b,{8}8/4,2-7[8:1]/6v3b[8:1],,6b/2b,
{24},,,,,,{12}1/5,5/1,1/5,,,,2,4,2,
6,4,6,3,5,3,6,4,5,3,6,4,
{4}7-3[8:1],1-5[8:1]/7-5[8:1],7/1,{8}1/2,8/3,
{16}4,7,4,7,5,6,5,6,4,7,5,6,4,7,5,6,
{8}4,3,{4}5-1[8:1]/2-4[8:1],2/5,{8}7/8,6/1,
{16}2,4,{8}3,{16}6,5,{8}6,8/7,8/7,{4}1-5[8:1]/6-1[8:1],
6/1,{8}8/4,{16}7,5,{8}6,{16}3,4,{8}2,1/5,
{16}6,7,8,2,3,4,7,8,1,3,4,5,6,7,8,1,
{12}2/6b,6,6,5b,5,5,4b,4,4,3b,3,3,
{8}4b/2b,{16}5,3,5,3,6,4,6,4,{24}7,8,1,2,3,4,5,6,7,
{4}4/8<5b[8:1],3/8>3b[8:1],8/4-8b[8:1],{8}4,5,
{4}6-4b[8:1],6/2-8b[8:1],{16}2/7,,,6,{8}5,3/4,
{4}2-6b[8:1],2/8-4b[8:1],8/1>3b[8:1],{8}1,5,
{4}6-1b[8:1],6/4-8b[8:1],{16}4/7,,,6,{8}5,4/1,
{2}1/4pp8[4:3],2,
3qq6[4:3],6,
5qq8[4:3],1,
{16}A2,B2,C,B6,A6,A1,E1,E8,A7,A3,E4,E5,{8}6,7,
8V64[8:3],,,4V28[8:3],,,{4}5<4[2:1],
{8},,5,6,7pp4[2:1],,,4,
,3,{4}1<4[2:1],{8},,4>1[4:1],4,
{4}1<6[4:1],6>3[4:1],3-1[16:3],8h[8:3],
{8},,1,2,3,{16}6,5,{8}6,8,
{16}3,4,{8}3,2/5,{16}7,8,{8}7-3[8:1],6/1,7,8,
1V35[8:3],,,5V71[8:3],,,{4}4>5[2:1],
{8},,4,3,2qq5[2:1],,,5,
,6,{4}8>5[2:1],{8},,5<8[4:1],5,
{4}8>3[4:1],3<6[4:1],6-8[16:3],1h[8:3],
{8},,8,7,6b/5b,7b/4b,,3b/4b,
{4}1b/5b,{16}7,8,7,8,7,6,5,4,3,2,1,8,
{4}7/3-8[8:1],{8}6-1[8:1]/3-5[8:1],5,{4}3/6-4>2-8[16:5],{8}8,7,
6,5,4<8[4:1],1,{4}4/3,{8}2,3,
4,5/6,{16}8/7,,,6,{8}1,2/5,{4}3/4,
{16}3,4,2,5,3,4,3,4,{8}1,1,{16}6,5,6,5,
7,4,6,5,{8}8,8,{16}5x,E5,B4,B3,E3,A2,7x,E7,
B6,B5,E5,A4,1x,E2/E1,B2/B8,B3/B7,E4/E7,A4/A6,5x,A4/A6,D4/D7,A3/A7,D3/D8,A2/A8,
{8}1xs5[4:1],1,,7x,{4}7-3[8:1],{8}5x-1[8:1],5,
,,8/2,3/7,{4}6<1[8:1],6/2>5[8:1],
2/8,{8}7,{16}6,6,5,5,{8}7,4,3,
{4}6/2-5[8:1],7-4[8:1]/2-8[8:1],2/7-1>3-5[8:3],7,
{8},,8/7,7/8,1b/6b,5b/2b,,7b/4b,
{4}8b/3b,{24}2,3,4,5,6,7,8,1,2,3,4,5,6,7,8,1,2,3,
{4}8-5b[8:1]/4>1[8:1],8b/4b,{16}7,8,7,8,7,8,7,8,
{8}6,5,2/4,3,5,6,7/4,2/1,
3/4,5/4,{4}6-1[400:49]/5-1[400:49],6/5,3-8[400:49],
{8}3/5,6,7-4[8:1],1/2,7,{16}8,8,{8}6,5/7,
{4}4-1[8:1]/8<5[8:1],4/8,{8}2-6[8:1],4/3,{4}2,
8-4[8:1]/7-4[8:1],8/7,{8}3,{16}6,5,6,5,7,4,
{8}6-1[8:1],5/4,{4}6,{16}3,8,3,8,4,7,4,7,
5,6,4,5,3,4,{8}1,{2}5-8-3[2:1],
3b<5-7[2:1],7bpp4[4:3],
{4}4b-2<7-5[2:1],{32},,,,,,,,,,,,,,,,A4/D5/D4/B4,A3,A2/B2/D2/D3,A1,A8/D8/B8/D1,A7,A6/D7/D6/B6,A5,
{4}1-5[8:1],1/8,7-4[8:1],{8}7,1,
2h[4:1],5,6,3,4/8,5/7,{4}6>4[8:1]/4-8[8:1],
4/6-1[8:1],6/2>4[8:1],{8}2-6[8:1],{16}8,8,{8}2,7,
5<8[8:1],{16}1,1,{8}5,{24}2,3,4,{4}5,{8}7/8,6/1,
{4}5-1[8:1]/2-4[8:1],5/2,8-4[8:1],{8}8,1,
2h[4:1],5,6h[4:1],3,4h[4:1],7,8h[4:1],5,
{16}6b,5,4,3,7b,6,5,4,8b,7,6,5,1b,8,7,6,
5h[16:3],,,3h[16:3],,,6,6,{24}5b,4,3,2,1,8,7,6,5,4,3,2,
{8}1/5b,5,5/8,5,5/7,5,5/6,5,
5/4,5,5/3,4/2,2,5/1,5,8/6,
{16}8,1,2,3,8,7,6,5,3,2,1,8,5,6,7,8,
1,1,1,1,1,8,2,8,2,7,{24}3,4,5,8,7,6,2,3,4,
{8}7b/5,7,7/6,7,7/8,7,7/1,7,
7/2,7,3/7,6/4,6,5/3,3,4/2,
{16}4,5,6,7,1,2,3,4,6,7,8,1,3,4,5,6,
{1}8<3[2:3],
{4},,,,2V48[4:3],
,,8V62[4:3],
,,,5V71[4:3],
,,{2}3V57[4:3],
{4},2,{8},3,,,{4}4/8V64[2:1],
3,2,1<5[4:3],
{8},2,,,{2}3,
{8}4,4,7,6,{4}5h[4:1],2h[4:1],
4<8[2:1],,,1>6[4:3],
{8},,,,,,,,7,
6,{4}5-1[8:3],{24},,,,,,,,,,,,2,
3,4,8,7,6,1,2,3,7,6,5,{32}2,3,4,5,6,7,8,1,{4}6bx-1[8:1]/2bx-5[8:1],
6/2,{16}6,7,8,1,2,3,6,6,5,7,4,5,
{8}3,2/4,{16}5,6,7,8,2,3,4,5,{24}8,7,6,4,3,2,
7,6,5,3,2,1,8,7,6,5,4,3,{4}2/6,{24}7,8,7,8,7,8,
6,5,4,1,2,3,{16}7,8,6,1,5,2,4,3,5,4,6,5,
7,7,8,8,{24}6,5,4,3,,,1/7,2,3,4,,,8/5,7,6,5,{96},,,,,,,,{32}2,
3,4,5,6,7,8,1,{8}6-1[8:1]/2-5[8:1],7/3,{4}6/2,{8}8b/4b,6b/2b,
{16}1,2,3,4,5/8,7,6,5,{8}4b/2b,1b/5b,{16}7,6,5,4,
3/1,2,3,4,{8}5b/6b,{16}7,8,{8}7,2b/1b,{16}3,4,{8}3,
4b/5b,{16}6,5,{8}7,8bh[4:1]/4bh[4:1],{32},,,,,7/3,6/2,5/1,{8}4/8-3[8:1],8,
6-1[8:1],6,4-7[8:1],4,2-5[8:1],2,8-4[8:1],8,
1-5[8:1],1,7x<4[8:1],7,,3x>8[8:1],3,E4,
,,{4}E5,E6,7-4[8:1],
7/2-6[8:1],2/7>1[8:1],7-4[8:1]/5-1[8:1],7/5,
8-3[8:1],8/5<8[8:1],5-2[8:1]*-1[8:1],5,
7-3[8:1],7/1-5[8:1],1/4,{16}7,8,7,8,
6,1,5,2,4,4,3,3,6,5,6,5,7,4,8,3,
1,1,2,2,{24}8b,7,6,5,,,8b/3,7,6,5,,,8b/2,7,6,5,,,1,
4,1,4,1,4,{16}2,2,5,5,3,3,6,6,{24}4,7,4,7,4,7,
{32}5,6,7,8,1,2,3,4,5,6,7,8,{16}1,{32}2,3,{2}8<4b[4:1]/4>8[4:1],
{8},,6,5,8,7,4,6,
3,5,2/4,3,8/4,7,6,1h[4:1],
{24}3,4,5,6,7,8,{8}1/2,3,4,6,7,5,
8,4,6/3,5,1/4,2,3,7,
5,4/6,{4}7<4[8:1]/3-8b[8:1],3b/7b>2[8:1],7b,
,1b-4b[8:1]/5b-8[8:1],5b/1b,{8}3/7,2-7b[8:1]/6v3[8:1],
,6b/2b,{24},,,1/5,2,3,4,5,6,7,8,1,6,5,4,1,2,3,
7,6,5,2,3,4,8,7,6,5,4,3,2,1,8,7,6,5,2,3,4,8,7,6,
1,2,3,7,6,5,{8}1,7bh[8:5]/3bh[8:5],,,,,,1w5[8:29],
E
