&title=想像のつばさ
&artist=櫻木真乃 (CV:関根瞳)
&first=0
&des="P"ーちゃん
&clock_count=4
&lv_5=11
&inote_5=(75)
{4},,,,
5h[4:3]/6,4,7<5[8:1],,4h[4:3]/3,5,2>4[8:1],,8h[2:1]/7<1[2:1],,,,2h[2:1]/7,,{48}B5,B4,,{16},,,,,,,
2<7[2:1],,,,,,,,6,,,,,,5-1[8:3],,5h[2:1],,,,,,,,,,
4,,3,,2,,1-7[4:1],,,,,,5,,6h[8:3],,,,,,3,,2-6[8:3],,,,,,,,,,
8,,8h[4:1],,6,,5q5b[8:3],,,,,,,,,,,,1h[4:1]/7,,6,,5pp7[8:3]*qq3[8:3],,,,,,,,,,,,,,
2x,3x,4xh[2:1]/5v2<8[2:1],,,,,,,,,,,,,,5x,6x,7x-2[8:3]/3x-6[8:3],,,,,,,,,,,,,,,,
8v3[8:3]/1,,,,,,5,,5h[8:3],,,,,,2,,2qq7b[2:1],,,,,,,,,,,,,,,,
6-2-6[2:1],,,,,,4,,4h[8:3],,,,,,5,,2q6q2[2:1]/6,,,,,,,,C,,,,,,,,
4-7b[8:3]/3-8b[8:3],,,,,,,,,,,,,,3-8[2:1],,4-7[8:3],,,,,,,,,,,,,,
7,6,5pp7[2:1],,,,,,,,,,,,,,2h,8h,3qq1[2:1],,,,,,,,,,,,,,,,
Ch[2:1],,,,,,,,,,,
3,2,1h[16:3],,,7bv2[4:1],,7,,6v3[4:1],,6,,,,,
6,7,8h[16:3],,,2v5[4:1],,2,,5v8[4:1],,,,,,,
7,6,5h[16:3],,,4-8-6[8:3]*-8-2[8:3],,4,,,,,,,,,,
25,3qq8[2:1]/4pp8[2:1],,,3xb/4xb,,,,,,,,,,,
1,2,3h[16:3],,,7V53[4:1],,7,,3V17[4:1],,,,,,,
4,3,2h[16:3],,,6<3b[4:1],,6,,3>6b[4:1],,,,E1f,,,
3,4,5h[16:3],,,4v5-8[8:3]*v3-8[8:3],,4,,,,,,,,,,
5<1[8:3]*>3[16:3],5,,,5,,,,,,2xh[8:1],,8xh[16:3],,,3xh[16:3],,,4,,
5bpp7[37.5#16:7]/3bqq1[37.5#16:7],,,,,,,,,,,,,,,,,,,,,,,,,,,,
{8}
6V85[2:1]/4V25[2:1],,,,,,,,
3V15[2:1]*v5[2:1]/4,,,,,,,,
6-8-5-1[2:1]/5,,,,,,2>2[2:1],,,,,,
{64},,,5xpp4[4:7],4xqq5b[64:111],,,,,,,,,,,,
{4},,,,,,,,E
