&title=四季ノ唄
&artist=Nujabes feat.MINMI
&first=0.07
&des=SLoeil
&freemsg=Nujabes feat.MINMI
&wholebpm=185
&des_5=SLoeil
&lv_5=12+
&inote_5=(185)
#intro
{1},
{4}3h[2:1]/5,,6qqx1[4:4],,{4}4,,2h[8:17],,{8}E8,,,E4,,,C,,,,,,{8}8^5[16:3],8h[8:3],,,
{8}4x,,2h[4:1]/4,,5,4,6/3h[4:1],,{8}4,,7h[4:1]/4,,5,6,4/5^8[4:1],,
{4}8^3[4:1],3^6[4:1],6-2[16:3],2,1-4[8:1]*-6[8:1],,
#verse1
{8}37,3,5,4,5h[4:1]/6h[4:1],,,5qq3[16:3]/6,,7,,8<4[4:1],,4^1[4:1],,8,,4,,
{1}3p1[4:3]/7p5[4:3],{8},{4}2,3h[4:1]/4,
{8}5,4,6,6,5h[4:1]/7h[4:1],,,5-8[8:1]/7^4[8:1],,,,1,4,4,3,5/2h[4:1],,4,3,6,4^1[16:3],,5,
{1}7pp3[4:3]*p4[4:3],
{8},2,5,1,2,3h[8:3]/4h[4:1],,,{4}4qq2[16:3],3h[4:2],4q8[16:3],,3,7h[2:1]/3,
{4}1-4[8:1],1-6[8:1],5^2[8:1],5^8[8:1],5s1[16:7],,,
{8}6,6,2,3h[4:1]/7h[4:1],,,3p2[16:5]/7h[4:1],,,8<3[32:9],,{8},1h[8:3],{4},4,2/5h[4:1],
{8}3-6[8:1],,6,7-2[8:1],,2,3qq5[8:6],,,4,{8}4,,5,,{8}7h[4:1],,
#verse2
{8}6,6,8,5,4h[4:1]/7-5[8:1],,,,{8}3,4,1,1,5h[4:1]/2V48[16:5],,,,
{8}7h[4:1],,1,2h[4:1],,4h[4:1],,3>6[8:4],3p5[8:3],,{8},,,,4,,
{8}34,5,2pp1[8:3],2,8h[4:1],,,,{8}78,6,1-4[16:2],1-6[16:2],,,,
{8}3h[4:1],,4,2/5h[4:1],,3<1[16:11],3,6,6h[8:7],{4},,,
{8}2,5,3-6[8:1],3,7,7hx[4:1],,,,
{4}5p8[4:1]/6,7,4q1[4:1],2,
{4}3^6[4:1],6^1[4:1],1>5[16:10]*q6[16:10],{8},{8},,,,{4},4h[4:1]/7,
{8}6,5,7p3[4:1],7,3,1hx[4:1],,,,
{4}4<8[4:1]/2,3,5>1[4:1],6,
{4}4<8[4:1],8>4[4:1],4qq7[4:3],{8},2x,2h[8:5]x,{4},,
#verse3
{8},6,4,5,4h[4:1]/3h[4:1],,,4p7[4:1]/3,,2,,1x>5[4:1],,5^8[4:1],,1,,5,,
{1}6qq8[4:3]/2qq4[4:3],{8},{4}7,6h[4:1]/5,
{8}4,5,3,3,4h[4:1]/2h[4:1],,,4-x1[8:1]/2-x5[8:1],,,,8,4,4,6,3/7h[4:1],,5,6,3,4<8[16:3],,2,
{1}1pp6[4:3]*qq5[4:3],
{8},7,4,8,7,6h[8:3]/5h[4:1],,,{4}5ppx7[16:3],6h[4:2],5p1[16:3],,6,2h[2:1]/6,
{4}8-5[8:1],8-3[8:1],4^7[8:1],4^1[8:1]*qq7[16:11],4,,,
{8}2,2,6,3h[4:1]/7h[4:1],,,3ppx1[16:5]/7hx[4:1],,,8<3[32:9],,{8},2h[8:3],{4},4,5/4h[4:1],
{8}6-3[8:1],,3,2-7[8:1],,7,6>7[16:11],,,,{8}B1/B8,,B4/B5,,{8}C,,
#chorus
{4}2xV41[2:1]/5x,4,1-6[4:1],6<4[2:1],1,4,6h[4:1],{8}5,6,4-1[16:2]/7-3[16:2],,,,
{4}4V63[2:1]/2,8,3V15[32:11],1,5,6hx[4:1]/4x,
{4}3-8[8:1],4^7[4:1],7^2[4:1],2qq5[2:1],3h[8:6],,,
{4}6,4qq2[4:1]/5,7,4q8[4:1],1,4V68[4:1],8V24[4:1],4,8,
{4}7Vx58[2:1]/3x,5,8-3[4:1],3>5[2:1],8,5,3h[4:1],{8}4,3,5-8[16:2]/2-6[16:2],,,,
{4}7V16[2:1]/5,3,6V48[32:11],4,8,7hx[4:1]/1x,
{4}2-5[8:1],1^6[4:1],6^3[4:1],3pp8[2:1],2h[4:3],,,
{8}7,,8/1V35[4:1],,5-2[8:1],,8-4[8:1],,8x^3[8:1]*-3[8:1],,8x^5[8:1]*-5[8:1],,8x,,4w8[8:1],,4x,,2b/6b,
{1},,,,,,,,,,,E
