&title=Who Am I?
&artist=Iris feat. Ruri Matsumura
&first=0
&des=Ä̸͚͉̝̗̗͖̺͒̀̍́̆̊̊͘r̵͇̹̣̅̌͋̓͋͂̐͌͗ǒ̸̪͈̖̺̰̩͓̰͔̈́͑͋͘͝ͅm̶̨͈̻̮͍͉̔̓̋̈́̿͠͠à̵͕̂̅
&lv_5=13+
&inote_5=(147)
{1},
{1},
{1},
{8}6/3>6[4:3],,,,,,,4,
{8},4h[8:7],,,,,,,
{8}6<3[4:3],,,,,,,5h[8:5],
{8},,4h[4:1],,,,45,,
{8}3qq6[4:3]/6,,,,,,,4h[8:5],
{8},,,,5h[8:4],,,,
{8}6pp3[4:3],,,,,,,,
{8}4<3[4:3],,,,,,,,
{12}6h[1:2],,,,,,5x,,7x,,7x,,
{12}8x,,4x,,4x,,3x,,1x,,1x,,
{8}2x>7[4:3],,,,,,,8h[8:5],
{8},,,,1h[8:3],,,3>7[8:5]*<7[8:5],
{8},,,,,,,,
{8}6/5h[8:3],,,4h[8:3],,,,4h[8:11]/3q4<2b[8:8],
{8},,,,,,,,
{16},,,,1x,2x,3x,4x,5x,6x,7x,8x,1x,2x,3x,4x,
{16}5xh[8:1]/6x,,6,4,5h[8:1],,2x,,1-5[8:1]/4,,,,8,,,,
{16}4xh[8:1]/6x,,5,3,4h[8:1],,2x,,1-4[8:1]/3-6[8:1],,,,1,,,,
{8}7x/5xh[4:1],,8,5xh[4:1]/7x,,8,8-3[8:1],,
{8}2xh[4:1],,3,2xh[4:1]/4x,,3-8[8:1],,,
{8}4xh[8:1],,3/4h[8:1],,4-1[8:1]/5,,8,,
{8}5xh[8:1],,6/5h[8:1],,5-3[8:1]/4-1[8:1],,4,,
{8}2x/4xh[4:1],,3,4xh[4:1]/6x,,5,2x/4xh[4:1],,
{8}3,4xh[4:1]/6x,,5,2x-5[8:1]/4x-7[8:1],,2,,
{8}8xh[8:1],,7/8,6xh[8:1],{16}1xv7-5[4:1],2x,3x,4x,,,,,
{8}1xh[8:1],,2/1,3xh[8:1],{48}8xv2-4[4:1],A7,D7,A6,,,,,,,,,{4},
{8}7xh[8:1],,5,7xh[8:1],8,{16},56,,,8,,
{8}1xh[4:1]/7x-5v4-2-8[8:4],,,3xh[4:1],,,,4,
{8}5x-3[8:1]/6xh[8:1],,5,7xv5-3[4:1],,1,1,,
{8}2xh[8:1]/4x-6[8:1],,4,1x-5[8:1],,7-3[8:1],,7,
{8}4xh[4:1],,5,4xh[4:1]/2x,,3,4xh[4:1]/6x,,
{8}5,4xh[4:1]/2x,,3,4x-8[8:1]/6x,4?-8b[294#4:1],8x,,
{8}78,6,45,3,12,3,45,6,
{16}7,8,7,8,5,4,5,4,1xb,8x,7xb,6x,8x,1x,2x,3x,
{8}4x/5xq1[8:1],6pp4[4:1],7,,2>5[8:1],3,1,8h[8:1],
{16}6,5,4,3,2/8,7,6,5,{8}4/8>4[8:1],5,6,7,
{16}5xh[8:1]/7x,,6,5xh[8:1],,7,5xh[8:1],,,7,5,6,4,5,3,,
{16}4xh[8:1]/2x,,3,4xh[8:1],,1,4xh[8:1],,,2,4,3,6,5,7,,
{16}5xh[8:1]/8x,,6,4xh[8:1],,1,3xh[8:1],,,1,2,8,1q5[8:1],7,8,,
{8}5>2[8:1]*v8[8:1],6,,,{16}1/6,2,3,4,5/8,7,6,5,
{16}1x/4xh[8:1],,2,4xh[8:1],,3,4xh[8:1],,,5,4,3,5,4,6,,
{16}8x/5xh[8:1],,7,5xh[8:1],,6,5xh[8:1],,,4,5,6,4,5,3,,
{8}1p5[8:1]/2,8<6[8:1],7,,{64}4b<1[32:5]*V68[8:1],E4,B3,B2,,,,,,,,,,,,,{4},
{16}3,4,3x,4,2x-5[8:1],5,2,5,2xh[128:1],1,8,7,46,3,2,1,
{16}7x,8,7,8,6-1[8:1],1,6,1,6xh[128:1],5,4,3,2x/8x,7,6,5,
{16}2,3,2x,3,1x-5[8:1],4,1,4,1xh[128:1],8,7,6,54,3,2,1,
{16}7x/8x,,6xb<1[8:1],5xb,6,5xb,6xb,,2>5[8:1],4,3qq1b[8:1],4,2,,,,
{8},{24}4xh[128:1],3x,2x,8xh[128:1],7x,6x,3xh[128:1],2x,1x,7xh[128:1],6x,5x,{32}A3,D4,B3,E4,A4,B4,E5,B5,A5,B6,E6,D6,
{8}A6,1xh[16:1],,37,3bq7[8:1]/7bp3[8:1],,,,
{16}8,,8h[16:1],5,,,5h[128:1],6h[128:1],4h[128:1],5h[128:1],3h[128:1],4h[128:1],3h[128:1],,3,,
{16}2/4,,5,4,6,,5/7,,4h[128:1],5h[128:1],{8}3h[128:1],2/4,{16}E2,E3,
{16}E4,,E8,E7,E6,,5x/4xp5[16:3],,,,,,8x-4[8:1],,8x,,
{16},,3,3,5,,4,,7h[8:1],,6h[8:1],,5h[8:1],,4,,
{16}45,,7,7,5,,{16}5h[128:1],6h[128:1],4h[128:1],5h[128:1],3h[128:1],4h[128:1],3h[128:1],,24,,
{16}14,,2,,5,4,6,,57,,6,,4,5,3,,
{16}1x/2x,,8x,,7x,8x,6xh[8:1],,5xb,,,4xb/3xbqq1>4[16:3],,,1xb,,
{16},,6,6,5x,,8/2h[8:1],,5h[128:1],3h[128:1],6h[128:1],4h[128:1],7x<4[8:1],5h[128:1],8h[128:1],,
{16}71,,3,3,4x,,12,,8/3,,6,6,5x<8[8:1],,4,,
{16}3/5,,2,2,1x,2h[128:1],1h[128:1],3h[128:1],8h[128:1],4h[128:1],7h[128:1],5h[128:1],6x>3[8:1],6xh[128:1],6xh[128:1],6xh[128:1],
{16}6xh[128:1],,8,8,1x,,2xh[128:1],2xh[128:1],2xpp4[8:1],2xh[128:1],2x<6[8:1],,,,,,
{8}Chf[2:1],,,,8b<6qq4[16:3],,3,2x,
{16}1h[8:1],,4,4,3x,,7h[8:1],,{24}3x,4x,5x,6x,7x,8x,1x,2x,3x,4x/5x,,,
{16}62,,7,7,8x,7h[128:1],8h[128:1],6h[128:1],1h[128:1],5h[128:1],2h[128:1],4h[128:1],3xh[128:1],5,4,6,
{8}5b,{24}8xh[128:1],7x,6x,4xh[128:1],3x,2x,7xh[128:1],6x,5x,3xhb[128:1],2x,1x,{32}A7,E7,B7,B6,C,B4,B3,E4,A3,,,,
{16}1x>4b[8:1]*<5b[8:1],,,,,,,,5,2,4,3,1,4,8,5,
{16}7h[8:1],,8p3[8:1],7,,1>4[16:1],8,,1x<6[16:1],,,1x-5[16:1],,,1x,,
{16}6xv4[8:1],6xh[128:1],6xh[128:1],6xh[128:1],6x<1[8:1],,,,2h[128:1],3h[128:1],4h[128:1],5h[128:1],8,7,6,5,
{16}2h[8:1]/4,,1q6[8:1],2,,8,1,,7,8,6,1,5,2,4,3,
{64}5bv3>2<1<8b[4:1],E6,B6,B7,,,,,,,,,,,,,{16}5x,,,,7h[128:1],6h[128:1],5h[128:1],4h[128:1],1,2,3,4,
{16}5/7h[8:1],,8bp3[48:5],7,,1h[16:3],8,,{48}D3,A2,D2,,D1,A8,D8,,,4,,,{16}5,3,6,2,
{16}7<4[8:1],,8-4b[8:1],,1>4[8:1],,8x,,,,,,5/6,,4h[4:1]/8,,
{16},,5x,,3x,4x,2xh[8:1],,1xb,,,7xb/8xb,,,5xbq6[4:1]/6xb,,
{16}7xh[8:1],,,7xh[8:1],,,7xh[8:1],,{24}8x-4[8:1],1x-5[24:2],2x,3x/6x,,,,,,,,,
{16}2h[8:1],,4>1[8:1],3,,5,4<7[8:1],,5,2,4-8[8:1],3,3,,8,,
{16}7xb>2b[16:1],7xb,,4xbv2b[16:1],,,7xb>2b[16:1],7xb,,4xbv2b[16:1],,,1x,8x,7x,6x,
{16}5xh[8:1],,1<6[8:1],7,,3,1>4[8:1],,2,7,1-5[8:1],8,8,,5,,
{64}4bv6<7>8>1b[4:1],E4,B3,B2,,,,,,,,,,,,,{16}4x,,,,2h[128:1],3h[128:1],4h[128:1],5h[128:1],8,7,6,5,
{16}4/2h[8:1],,5b-1[8:1],3b,,7b,5,,6,2,5,3,1,4,8,5,
{16}7-3[8:1],,8-4b[8:1],,1-5[8:1],,8x,,,,,,46,,8/2,,
{16}1,7,3,4,2,8,5,6,{32}1x,2x,3x,4x,5x,6x,7x,8x,1x/5x,2x,3x,4x,5x,6x,7x,8x,
{8}1xh[1:1]/4x-8[2:1],4?-8b[294#1:1],,,,,,,
{8}6<3[4:3],,,,,,,5,
{8},5h[8:7],,,,,,,
{8}3>6[4:3],,,,,,,4h[8:5],
{8},,5h[4:1],,,,45,,
{8}3/6pp3[4:3],,,,,,,5h[8:5],
{8},,,,4h[8:4],,,,
{8}3qq6[4:3],,,,,,,,
{8}E8,E1,E2,,,,,,
{12}3-5-2-6[4:3]/6,,,,,,,,,,,,
{8}8h[2:1],,,,1h[2:1],,,,
{8}3>6[4:3],,,,,,,4h[8:5],
{8},,,,5h[8:3],,,6<2[8:5]*>2[8:5],
{8},,,,,,,,
{8}6/5h[8:3],,,4h[8:3],,,,4/3q5<1b[8:9],
{1},
{64}E6,1?>2>3<4<5<6<7>8>1>2>3<4<5[1:3],,,,,,,{8}B5,B4,E4,
