&title=LUVORATORRRRRY!
&artist=REOL
&first=0.04
&des=YUVUKKKKKA!
&des_5=
&lv_5=13+
&inote_5=(128){4},,,,2xh[4:1],
{16}6h[16:3],,,4h[8:1],,5,{8}3,7xh[8:1],C,
4h[8:1],6h[8:1],{16}3x,5,,2/8,,3,{8}4,4x,3,
{4}7xh[4:1],{16}3h[16:3],,,5h[8:1],,4,{8}6,2xh[8:1],C,
5h[8:1],3h[8:1],{16}6x,4,,7/1,,6,{8}5,7bx,2bx,
2/8-4[8:1],7,8/2-5[8:1],3,7/2,{16}B7,B6,,B2,{8}B3,
{4}2/5-1[8:1],5/3-8[8:1],3/6v1[8:1],{16}6/2x,3x,{8}4x,
8/2-5[8:1],3,2/8-4[8:1],7,2/8,{16}B2,B3,,B6,{8}B5,
1-5[8:1],6-8[8:1],1,6,{32}2,3,4,5,6,7,8,1,2/C,3,4,5,6,7,8,1,
{4}2/6-1[8:1],{8}6/4,3h[8:1],{16}5,4,6,3,{8}5h[8:1],2,
8/7,C,3/4,6h[8:1],{16}2,7,1,8,{4}2V86[8:1],
{8}2-4[8:1],5,2,6,{32}7/2,6,{16}5,{8}1,{32}2/7,3,{16}4,{8}8,
{16}1-4-1[4:1],8,2,7,{4}1,{16}7-2[8:1],4,6,5,{4}7,
{16}6,6,5,5,{8}4x,3h,{16}4,4,5,5,{4}6<2[4:1],
{16}2x,3x,4x,5x,{4}6xV42[4:1],{16}2x,1x,8x,7x,{8}6x,5/3,
{16}3,4,3,4,{8}2,8/1s5[16:3],,8,7,6b,
,6/3,{16}4,5,3,6,2,7,{8}1h[4:1],B8/B7,B6/B5,
1,5h[16:3],{16},2h[16:3],,,6h[16:3],,,3h[16:3],,,{8}7h[8:1],
3h[8:1],6h[16:3],{16},2h[16:3],,,5h[16:3],,,1h[16:3],,,{8}4h[8:1],
8h[8:1],4h[8:1],{16}1,5h[8:1],,2,{8}6h[8:1],{16}3,7h[8:1],,4,{8}8h[8:1],
2>5[8:1],1,2/7-4[8:1],8,7/1-5[8:1],8,{4}1/7,
{8}8h[8:1],4h[8:1],{16}7,3h[8:1],,6,{8}2h[8:1],{16}5,1h[8:1],,4,{8}8h[8:1],
4h[8:1],{16}1,5h[8:1],,2,{8}6h[8:1],{16}3,7h[8:1],,4,{8}8h[8:1],5,
{4}5/1,{8}2/8h[16:1],3,7/1h[16:1],{16}5,4,{8}5,4s8[8:1]/5s1[8:1],
,5/4,,8/1,{32}8x/1xh[32:1],7x,6x,5x,,,,,1x/8xh[32:1],2x,3x,4x,,,,,{8}5pp8[4:7],
,,,,,,4,
3,{16},,,,2,2,,1,{8}1,2,1,
{4}1pp4[4:7],{16}8,,,7,,,,,,,{8}8,
7,{16},,,,6,6,,5,{8}5,6,5,
{4}6h[4:1],{16}3h[16:3],,,5h[8:1],,4,{8}6,3h[8:1],5,
4h[8:1],6,3h[16:3],{16}5,6h[16:3],,4,{8}3,3/4,5/6,
6h[8:1],3,7h[16:3],{16}4,2h[16:3],,5,{8}6,4/5,6/3,
1b/2b,3b/4b,5b/6b,{32}7b/8b,1,2,3,{16}4h,6h,8h,2h,{4}4b-2[8:1],
4-7[8:1]/5-8[8:1],4/5qq2[8:3],{8}5/1-6[8:1],1,{4}1,
{32}7-1[8:1]/2-6[8:1],3,{16}4,,,{4}2/7V53[8:1],{8}7-1[8:1]/2-6[8:1],1,{4}2/7,
{32}8/4-8[8:1],7,{16}6,,,{4}4-2[8:1]/5pp8[8:3],4,{8}2b,3b,
{32}2-8[8:1]/7-3[8:1],6,{16}5,,,{4}7/2V46[8:1],{8}2-8[8:1]/7-3[8:1],8,{4}7/2,
{8}4/6h[8:1],3,5/3h[8:1],6,4/6h[8:1],2,{16}3,3,{8}7,
{4}8/2>4[8:1],2/1p5[8:1],1/8w4[8:1],8,
{8}5/3h[8:1],6,4/6h[8:1],3,5/3h[8:1],7,{16}6,6,{8}2,
{4}1/7<5[8:1],7/8q4[8:1],8/1w5[8:1],1,
1h[4:1]/7-5[8:1],7,8h[4:1]/3-5[8:1],{8}3,7,
{16}7,8,6,5,7,8,6,5,{8}4<7[8:1]/3>8[8:1],5/2,{4}4/3,
{16}6,4,5,1b,{32},,2,3,{8}4,{16}6,4,5,1b,{8}8z4[4:1],4,
4z8[4:1],,,C,{16}E8/B7,B5/E6,B1/E2,B3/E4,,,{8}4h[8:1],
5-8[8:1],6,5/4>1[16:3],3,{16}8x/4,7x,6x,5x,,,{8}8h[8:1],
1-4[8:1],2,1/8<5[16:3],7,{16}4x/8,3x,2x,1x,,,,,2-8[8:1],
5,3,4,{4}2,{16}2-4[8:1],7,1,8,{4}2,
{1}Ch[8:7],
{8}1/7<4[8:1],8,7/1-5[8:1],8,1/6-3[8:1],7,{4}6/2h[8:1],
{16}7h[8:1],{32}2,3,{16}4,8h[8:1],{32}2,3,{16}4,7,1h[16:5],{4}6-2[8:1],6,
{8}8bx/7bx,1bx/8bx,8bx/7bx,2bx/1bx,{16}3bx,8bx,,2bx/1bx,,,,,{8}4bx/3bx,
5bx/4bx,4bx/3bx,6bx/5bx,{16}7bx,4bx,6bx,5bx,{4}7bx/4bx,
{8}8/2>5[8:1],1,2/8-4[8:1],1,8/3-6[8:1],2,{4}3/7h[8:1],
{16}2h[8:1],{32}7,6,{16}5,1h[8:1],{32}7,6,{16}5,2,8h[16:5],{4}3-7[8:1],3,
{8}1bx/2bx,8bx/1bx,1bx/2bx,7bx/8bx,{16}6bx,1bx,,7bx/8bx,,,,,{8}5bx/6bx,
4bx/5bx,5bx/6bx,3bx/4bx,{16}2bx,5bx,3bx,4bx,{4}2bx/5bx,
5bpp8[4:7],C,3h[8:1],2h[8:1],
{8},1h[16:3],,,1,2,3,4,
{4}1bpp4[4:7],C,7h[8:1],6h[8:1],
{8},5,{16}5,,,6,,7,{8}7h[8:1],,8,
{4}7h[4:1],1h[4:1],{8}8h[8:1],{16}3,4,{8}1h[8:1],6h[8:1],
{4}2h[4:1],8h[4:1],{8}1h[8:1],{16}6,5,{8}8h[8:1],3bxh[8:1],
{4}6h[4:1],4h[4:1],{8}5h[8:1],{16}2,1,{8}4h[8:1],7h[8:1],
,7bx/8bx,6bx/5bx,4bx/3bx,{64}6bxh[4:1]/A2,D2,A1,D1,A8,D8,A7,D7,,D6,A5,D5,A4,D4,,,{4}3b-7b[8:1],
{64}3b/5b-8[8:1],Cf,,,,,,,,,,,,,,,{4}5/2-4[8:1],{8}2-8[8:1],7h[8:1],2,5h[8:1],
,2h[16:3],{16},1,{8}2,2-5[8:1],1-6[8:1],2,1,
{4}4-1[8:1],4/2-7[8:1],{8}2/8-5[8:1],8,{4}8/1,
{16}2,4,3,5,4,6,{8}5,{16}7,7h[16:1],{8}5h[8:1],3h[8:1],1h[8:1],
{4}4b-1[8:1],4/7-5[8:1],{8}7-1[8:1],2h[8:1],7,4h[8:1],
,7h[16:3],{16},8,{8}7,7-4[8:1],8-3[8:1],7,8,
{4}5-8[8:1],5/7-2[8:1],{8}7/1-4[8:1],1,{4}1/8,
{16}7,5,6,4,5,3,{8}4h[8:1],{16}3,1,2,8,1,7,{48}8,1x,2x,3x,,,{2}B6/B5,
B8/B1,
E3/B3,E6/B5,
8-2[8:1],4-6[8:1],
B7/B6,B1/B2,
B3/B4,B1/B8,
E7/B6,E4/B4,
1-7[8:1],5-3[8:1],
B2/B3,B8/B7,
{8}E4,E6,B3,B6,B2,B7,{4}4b-2[8:1],
4-7[8:1]/5-8[8:1],4/5qq2[8:3],{8}5/1-6[8:1],1,{4}1,
{32}7-1[8:1]/2-6[8:1],3,{16}4,,,{4}2/7V53[8:1],{8}7-1[8:1]/2-6[8:1],1,{4}2/7,
{32}8/4-8[8:1],7,{16}6,,,{4}4-2[8:1]/5pp8[8:3],4,{8}2b,3b,
{32}2-8[8:1]/7-3[8:1],6,{16}5,,,{4}7/2V46[8:1],{8}2-8[8:1]/7-3[8:1],8,{4}7/2,
7h[4:1],1h[4:1],{8}8h[8:1],{16}3,4,{8}1h[8:1],6h[8:1],
{4}2h[4:1],8h[4:1],{8}1h[8:1],{16}6,5,{8}8h[8:1],3bxh[8:1],
{4}6h[4:1],4h[4:1],{8}5h[8:1],{16}2,1,{8}4h[8:1],7h[8:1],
{4}2h[4:1],8h[4:1],{8}1h[8:1],{16}6,5,{8}8h[8:1],3,
{48}8bx/1bx,7bx/2bx,6bx/3bx,5bx/4bx,,,,,,,,,1bxh/8bx-4b[8:1],7bxh/2bxh,6bxh/3bxh,5bh/4bxh,,,,,,,,,{8}8b-6b[8:1],{32}1b-5b[8:1],2,3,4,{8}8b,1b,
,7h[16:3],{16},8,{8}7,7-4[8:1],8-3[8:1],7,8,
{4}5-8[8:1],5/7-2[8:1],{8}7/1-4[8:1],1,{4}1/8,
{16}7h[8:1],,,5,6,4,5,3,{8}4,{16}2,2h[16:1],{8}4h[8:1],6,
{4}5b-8[8:1],5/2-4[8:1],{8}2-8[8:1],7h[8:1],2,5h[8:1],
,2h[16:3],{16},1,{8}2,2-5[8:1],1-6[8:1],2,1,
{4}4-1[8:1],4/2-7[8:1],{8}2/8-5[8:1],8,{4}8/1,
{16}2,4,3,5,4,6,{8}5h[8:1],{16}6bx,8b,7b,1b,8b,2b,{48}1b,8bx,7bx,6bx,,,{4}4bxh[8:9],
{48}8bx,7x,6x,5x,,,,,,,,,8bx,1x,2x,3x,,,,,,,,,8bx,7x,6x,5x,,,,,,,,,8bx,
1x,2x,3x,,,,,,,,,{16}7,8,{8}5h[8:5],{48}1bx,2x,3x,4x,,,,,,,,,1bx,8x,7x,6x,,,,,,,,,{4}4bxh[1:1],
{48}8bx,7x,6x,5x,,,,,,,,,8bx,1x,2x,3x,,,,,,,,,8bx,7x,6x,5x,,,,,,,,,{8}5,
6/2h[8:1],{16}7,8,,3/7h[8:1],,2,{8}1,2b/1b,7b/8b,
{4}5h[8:9]/1>4[8:1],1<6[8:1],1>4[8:1],1<6[8:1],
1,{16}2,1,{8}4h[2:1],{48}8bx,7x,6x,5x,,,,,,,,,8bx,1x,2x,3x,,,,,,,,,{4}5h[8:9]/1>4[8:1],
1<6[8:1],1>4[8:1],1,
{8},4,2/1,8/7,{4}5w1[8:1],5>4>3>2<1<8<7<6>5>4>3>2<1<8<7<6>5[2:3],
E
