&title=生きてるおばけは生きている
&artist=鬱P feat.flower
&first=0.01
&des=MiraT
&lv_5=13+
&inote_5=(140)
{1},
{16}6h[16:3],,,7h[16:3],,,8,,3h[16:3],,,2h[16:3],,,1,,
{16}5h[16:3],,,3h[16:3],,,7,,18,,,,2,,3,,
{16}4v1-3-5[4:1],,,6,,,7,,8v5-7-1[4:1],,,1,,,2,,
{16}3,,4,4h[16:3],,,8,,1-6[8:1]/5-2[8:1],,,,,,,,
{16}1h[16:3],,,3h[16:3],,,2,,8h[16:3],,,6h[16:3],,,7,,
{16}2h[16:3],,,5h[16:3],,,4,,47,,,,4,,3,,
{16}2-8-4-2[4:1],,,5,,,6,,7-1-5-7[4:1],,,4,,,3,,
{16}Ch[2:1],,,,,,,,,,,,1,8,1,8,
{16}2x/7x,,2-5[8:1],1,,1,2,,8,,4-1[8:1],7,,7,4,,
{16}5,,8>3[8:1],6,,6,8,,7,,1,8,1,,27,,
{16}45,,3,4,,2,28,,16,,7,8,,6,64,,
{16}3,3,4,2h[16:3],,8,8,,17,,B2,B7,D4,D6,B5/B4,,
{16}7x/2x,,7-4[8:1],8,,8,7,,1,,5-8[8:1],2,,2,5,,
{16}4,,1<6[8:1],3,,3,1,,2,,8,1,8,,72,,
{16}54,,6,5,,7,71,,83,,2,1,,3,35,,
{16}7bv4[8:1]/1bv4[8:1],,,,7b<4[8:1]/1b>4[8:1],,,,1b/7b,,,,C,,,,
{16}3h[8:1],,5,,3h[8:1],,2,,3,,8,1,,1,7h[4:1],,
{16},,1,,1,,1,,5x,5,5,5,4x,4,4,4,
{16}7h[8:1],,1,,7h[8:1],,6,,7,,4,5,,5,3h[4:1],,
{16},,5,,5,,5,,1x,1,1,1,8x,8,8,8,
{16}2,,28,,2,,23,,2,,5,4,,4,6h[4:1],,
{16},,4,,46,,4,,8x,8,8,8,1x,1,1,1,
{16}6,,64,,6,,67,,6,,1,8,,8,2h[4:1],,
{16},,A7/E8,,A3/E4,,A6/E6,,A2/E2,,C,,1,1,1,1b/8b,
{16},,7,,3,4,2,5h[16:3],,,4,,8,1,7,2h[16:3],
{16},,1,,5,6,4,7h[16:3],,,8,,2,3,4,1x/5x,
{48},,,,,,7b,6,5,,,,8b,1,2,,,,7b,6,5,,,,8b,1,2,,,,7b,6,5,,,,{16}B3/E4f/B4,,8x,8xh[16:3],
{48},,,,,,2b,3,4,,,,1b,8,7,,,,2b,3,4,,,,1b,8,7,,,,2b,3,4,,,,{16}B6/E6f/B5,,1x,1xh[16:3],
{16},,8,,6,6,5,7h[16:3],,,4,,2,2,1,3h[16:3],
{16},,5,,7,7,8,6h[16:3],,,1,,6,7,8,1x/5x,
{48},,,,,,7b,6,5,,,,3b,2,1,,,,7b,6,5,,,,3b,2,1,,,,7b,6,5,,,,{16}B2/E2f/B1,,5x,5xh[16:3],
{48},,,,,,2b,3,4,,,,6b,7,8,,,,2b,3,4,,,,6b,7,8,,,,2b,3,4,,,,{16}B7/E8f/B8,,4x,4x,
{16}5h[8:1],,B1/E2,6h[8:1],,B3/E3,7h[8:1],,4h[8:1],,B8/E8,3h[8:1],,B6/E7,2h[8:1],,
{16}5h[8:1],,B1/E2,6h[8:1],,B3/E3,7h[8:1],,4,,48,,7,7,7,6b/2b,
{48},,,,,,2b,3,4,,,,1b,8,7,,,,2b,3,4,,,,1b,8,7,,,,2b,3,4,,,,{16}B6/E6f/B5,,1x,1xh[16:3],
{48},,,,,,7b,6,5,,,,8b,1,2,,,,7b,6,5,,,,8b,1,2,,,,7b,6,5,,,,{16}B3/E4f/B4,,8x,8x,
{16}1h[8:1],,B5/E6,2h[8:1],,B7/E7,3h[8:1],,8h[8:1],,B4/E4,7h[8:1],,B2/E3,6h[8:1],,
{16}1h[8:1],,B5/E6,2h[8:1],,B7/E7,3h[8:1],,8h[8:3],,4x,,3x,,2x,,
{8}1x/8,87,76,65,54,43,32,21,
{16}8,1,8,,1,2x/7x,,8,,8,2x/7x,,Cf,,,,
{8}6-1b[8:1]/4,8/2-5-3-8[4:1],64,2,7,5,6x/1x,,
{8}4-8b[8:1]/5,2/7-3-1-5[4:1],45,7,4,2,3x/6x,,
{8}6<1[8:1],7,2>5[8:1],3,28,7,86,15,
{16}2h[8:1]/4h[8:1],,,7h[8:1]/5h[8:1],,,18,,2,4,3,,45,,36,,
{8}1/8<5b[8:1],3-8-6-2[4:1]/5,18,3,5,7,1x/6x,,
{8}5/4-8b[8:1],7-4-2-6[4:1]/1,54,7,1,1,2x/7x,,
{8}8p4[8:1],7,2-6[8:1],3,72,8,18,36,
{16}5,,5,2,,2,4,,1,,18,,2,7,2,7,
{16}2x,,6-8[8:1],5,,5,6,,1,1,8,2,7,1,6,,
{16}7x,,4>1[8:1],5,,5,4,,6,6,1,8,2,7,1,,
{16}3x,,8-6[8:1],1,,1,8,,4,4,5,3,5,2,5,,
{16}18,,27,,5,4,6,,18,,27,,4,5,3,,
{16}8x,,2>5[8:1],1,,1,2,,6,6,3,8,2,7,1,,
{16}5,,3,6,3,,18,,,,6,6,5,,1b/7b,,
{16},,6,6,5,,8b/2b,,,,6,6,5,,1b/3b,,
{24}2x,,,3,4,3,4,3,4,3,,,2,3,4,5,6,7,1bx/8bx,,,,,,
{4}6-1[8:1]/2-5[8:1],,7-4[8:1]/3-8[8:1],,
{4}1>4[8:1]/5<8[8:1],,{16}E2/B2/E3,,,B5/B4/C,,,E8/B7/E7,,
{4}5-7[8:1]/4-8[8:1],,5-1[8:1]/4-2[8:1],,
{4}5h[4:1]/4h[4:1],{16},,E3,E7,Ch[8:3],,,8,,,8,,
{4}1>4[4:1],B2/B3,8<5[4:1],B7/B6,
{4}1>4[4:1],B4/B3,8<5[4:1],B5/B6,
{16}1,,1,8,1,8,3,7,2,6,4,5,2,6,3,7,
{4}1b<6[8:1]*>4[8:1],1bw5[8:1],1b,{16}2,7,2,7,
{16}1x,1,5,2x,2,6,3x,3,8x,8,4,7x,7,3,6x,6,
{16}2x,4,3,7x,5,6,1x,8,2x,2,4,4,5x,5,7x,7,
{16}3x,4,5,2x,3,4,1x,1,6x,5,4,7x,6,5,8x,8,
{16}2x,1,3,7x,8,6,4x,5,3x,3,1,1,8,8,6,6,
{16}4b,4,D8/E8,4,D1/E1,4,D7/E7,4,D2/E2,4,D6/E6,4,D3/E3,4,6,4,
{16}5b,5,D2/E2,5,D1/E1,5,D3/E3,5,D8/E8,5,D4/E4,5,D7/E7,5,3,5,
{16}4b,7,5,6,2,5,3,4,1,8,2,7,1,1,1,1,
{4}1bs5[8:1],1b/8b,3b-8[8:1]/7b-4b[4:9],
