&title=黝堊の祈り - Anima immortalis est.
&artist=Imperial Circus Dead Decadence
&first=0
&des=amdm910
&clock_count=4
&demo_seek=377.86
&lv_5=15+
&inote_5=(270){1},,
{1}1-5[4:3],
{1}8-4[4:3],
{1}2^5[4:3],
{1}7-4-6-1[4:3],
{1}2,
{8}3h[8:3],,,2h[8:3],,,1h[4:1],,
{4}8<4[4:3],,,3,
{4}3,,,,
{8}4h[8:3],,,5h[8:3],,,6h[4:1],,
{4}8,,,5,
{8}5h[8:3],,,4h[8:3],,,3h[4:1],,
{4}1,,,6,
{2}5/7,4/6,
{2}3/5,2-6[4:1]/4,
{1}8w4[4:8]b,,,
{1}2b/6b,,,,
{8}4b/3h[4:3],,8,,,6,6,4,
{16}7,,,,8,,2,1,2,,8,,3,,7,,
{16}A4/B4,D5,A5,D6,A6,D7,A1/B1,D2,A2,D3,A3,D4,Chf[4:1],,,,
{2}8b,{24}A8,D8,A7,D7,A6,D6,A5,,,,,,
{16}3b,4,3,4,3,4,3,4,3,4,3,4,3,4,3,4,
{16}2,5,2,5,2,5,2,5,2,5,2,5,2,5,2,5,
{16}1,6,1,6,1,6,1,6,1,6,1,6,1,6,1,6,
{16}8,7,8,7,1,7,1,7,2,7,2,7,3,7,3,7,
{16}4,6,4,6,3,7,3,7,2,8,2,8,1,7,1,7,
{16}8,6,8,6,8,6,8,6,1,5,1,5,1,5,1,5,
{16}2,4,2,4,2,4,2,4,2,4,2,4,3,4,3,4,
{8}1x-5[8:1],,,4x-7[8:1],,,{16}1x,2,3,4,
{16}5x/8x,7,6,5,8,1,2,3,5,6,7,8,2,3,4,5,
{16}6x/2x,3,4,5,1,2,3,4,8,1,2,3,7,8,1,2,
{16}3x/4x,5,6,7,1,2,3,4,1,8,7,6,4,3,2,1,
{16}8x/7x,6,5,4,8,7,6,5,1,8,7,6,2,1,8,7,
{16}1b/6x,5,4,3,2x/5b,1,8,7,2b/6x,5,4,3,2x/6b,1,8,7,
{16}3bx,7x,3x,7x,3x,7x,3x,7x,4bx,8x,4x,8x,4x,8x,4x,8x,
{16}5b,1,5,1,5,1,5,1,5,1,5,1,6,,,,
{8}7h[4:1]/8-4[8:1],,8x,,3h[4:1]/6,6,5,5,
{8}2,4,2,8,4,6,3,1,
{8}3,5,1,7,1h[8:1]/3h[8:1],,4h[8:1]/8h[8:1],,
{8}7,5,7,1,5,3,6,8,
{8}6,4,8,2,3/7,6,5/4,3,
{12}2xb,1x,2x,1x,2x,1x,2x,1x,2x,1x,2x,1x,
{12}3x,8x,3x,8x,3x,8x,4x,7x,4x,7x,5x,7x,
{12}6x,7x,6x,7x,6x,7x,6x,7x,6x,7x,6x,7x,
{8}5,1,1,2,2,3,3-7[8:1],4,
{8}3b,6h[8:1],,6h[8:1],,7h[8:1],1-5[8:1],7h[8:1],
{8}1b,8h[8:1],,8h[8:1],,7h[8:1],6-2[8:1],7h[8:1],
{8}6b,1h[8:1],,1h[8:1],,7h[8:1],4-8[8:1],7h[8:1],
{8}4b,5h[8:1],,6h[8:1],,7h[8:1],,8,
{8}4b/7b,,{16}6,5,6,,2,,4,,2,,4,,
{8}1,3h[8:1],2,4h[8:1],3,5h[8:1],4,6h[8:1],
{16}8,1,2,3,5,6,7,8,2,3,4,5,1V37[8:3],8,7,6,
{4}5b/1b,,B8hf[2:1],5-1[8:1]b,
{8}5b,,2/7,3,7/4,6,5-1[8:1]/1,2,
{8}3-7[8:1]/5,,3/8-3[8:1],,2-6[8:1]/8,,2/5-2[8:1],,
{8}5/1-5[8:1],,1/6-1[8:1],,4-8[8:1]/6,,4/8<2[2:1],,
{8},,8,7,6h[4:1],,1,8,
{8}7x-3[8:1]/2bx,,7/4-7[8:1],,4/6-2[8:1],,6/2>8[2:1],,
{8},,1-5[8:1],,1,,4/6,3/7,
{8}2-6[8:1]/8,,2/8-4[8:1],,8,,3/5,2/6,
{16}1b/7b,,,,7,8,7,8,6h[8:1],,5h[8:1],,4h[8:1],,3h[8:1],,
{8}2bx,,8,7,6/1,2,3/7,6,
{8}4x^1[8:1],5,4,7x^4[8:1],8,7,2x-6[8:1],3,
{8}2,,7-4[8:1],,7/3-7[8:1],,8>6[2:1]/3,,
{8}8/3x,,1x-6-4-8[2:1]b,,,,,,
{8}7b-4[8:1],,7/3-7[8:1],,3/8-3[8:1],,8/4-8[8:1],,
{8}4/7^4[8:1],,1-5[8:1]/7,,1/6-1[8:1],,6/2-8-6-4[8:3]b,,
{8}2b,,,,1/7,,4,3bx/5bx,,,,Ch[8:3],,,,,
{24}1b-6^8-4[8:3]b/8,2,3,4,5,6,{8},,3-8[8:1],,3/7-3[8:1],,
{8}7/1-5[8:1],,1/6-1[8:1],,2-6[8:1]/6,,8-4[8:1]/2,,
{8}8-6[8:1]/1-5<3[2:1]b,,,,,,,,
{8}4h[8:3]/7b,7,6,6,5h[8:1]/3,3,6h[8:1]/2-5-1[4:1],2,
{8}8-6[8:1],,8-4[8:1]b,,2-8[8:1],,5-1[8:1]/2-4[8:1],,
{8}2/5-7[8:1],,8w4[8:1]b,,,,,,
{24}8b-3^5-1[8:3]b/1,7,6,5,4,3,{8},,7-3[8:1],,7/2-5[8:1],,
{8}2/6-2[8:1],,3-8[8:1]/6,,7-4[8:1]/3,,1-5[8:1]/7,,
{8}8-4V61[2:1]b/1-3[8:1],,,,,,,,
{8}2/8h[8:1],2,7h[8:1]/3,3,4h[8:3]/6,6,5-1-6[4:1],5,
{8}3,3,2,2,5-1[8:1]/1,,2-4[8:1]/5,,
{8}2-8[8:1]/7-3[8:1],,7<1[2:1]/2,,2h[4:1],,,,
{8}4bh[4:1],,,,E1/B8/B1/Cf/B5/B4/E5,,7/2,6,
{8}2/5,3,4-8[8:1]/8,7,6-2[8:1]/4,,6/1-6[8:1],,
{8}7-3[8:1]/1,,7/4-7[8:1],,4/8-4[8:1],,8/3-8[8:1],,
{8}5-1[8:1]/3,,5/1>7[2:1],,,,1,2,
{8}3h[4:1],,8,1,2x-6[8:1]/7bx,,2/5>7[8:3],,
{8}3h[4:1],,,,4-8[8:1],,4/7-4[8:1],,
{8}3-7[8:1]/7,,8/3,,2h[4:1]/1,,7-4[8:1],8,7,3,
{8}2-5[8:1],1,2,{16}8x-4[8:1],,,8xw4[8:1]b,,,
{16},,,,,,,,2b/5b,,,,7b/4,6,5,4,
{16}3/1b,8,7,6,5,4,3,2,1/6b,5,4,3,2,1,8/3b,4,
{16}5,6,7,8,1/4b,3,2,1,8,7,6,5,4/8b,1,2,3,
{16}4/1b,2,3,4,5/2b,3,4,5,7x,6x,7x,6x,7x,6x,7x,6x,
{8}8bx-4[8:1],4-7[8:1],,,1-3[8:1],,1-5[8:1]/8-6-1[4:1],,
{8}8,,3-8-4[4:1],,3/7,6-2[8:1],,3-1[8:1]/6,
{8},3/4-8[8:1],,4,{16}2,1,2,1,3,8,3,8,
{16}2,7,2,7,1,6,1,6,8,1,2,3,8,7,6,5,
{16}4/E2,E1,E8,E7,E6,E5,E4,E3,{24}E2f/8b-3^1-5[8:3]b,7,6,5,4,3,,,,,,,
{8}6-1[8:1],,6/2-6[8:1],,2/8-4[8:1],,8/3-8[8:1],,
{8}7-3[8:1]/3,,1-5[8:1]/7,,1-3[8:1]/8-4>6[2:1]b,,,,
{8},,,,5h[8:3]/2b,2,3,3,
{8}4h[8:1]/6,6,3h[8:1]/7-4-8[4:1],7,1-3[8:1],,1-5[8:1]b,,
{8}7-1[8:1],,4-8[8:1]/7-5[8:1],,7/4-2[8:1],,1w5[8:1]b,,
{8},,,,{24}1b-6^4-8[8:3]b/8,2,3,4,5,6,,,,,,,
{8}2-6[8:1],,2/7-4[8:1],,7/3-7[8:1],,6-1[8:1]/3,,
{8}2-5[8:1]/6,,8-4[8:1]/2,,1-5V38[2:1]b/8-6[8:1],,,,
{8},,,,7/1h[8:1],7,2h[8:1]/6,6,
{8}5h[8:3]/3,3,4-8-3[4:1],4,
{8}6,6,7,7,4-8[8:1]/8,,7-5[8:1]/4,,
{8}7-1[8:1]/2-6[8:1],,2>8[2:1]/7,,7h[4:1],,,,Cf,,,,
{16}3b,4,3,4,3,4,3,4,3,4,3,4,3,4,3,4,
{16}3,4,3,4,3,4,3,4,3b,4,3,4,3b,4,3,4,
{16}2b,5,2,5,2,5,2,5,2,5,2,5,2-6[8:1],5,2,5,
{1}2,
{16}7,8,7,,6,,4,5,4,,3,,8,1,8,,
{16}7,,5,6,5,,4,,1,2,1,,8,,7,,
{8}5/6,5/6,5/6,,3/4,3/4,3/4,,
{12}1x,2x,3x,4x/5x,,,8x,7x,6x,5x/4x,,,
{8}3/6,,7,7,4,5,2,7,
{8}8/1,2,3,6h[4:1],{16}E3,B2,B1,E1,E7,B6,B5,E5,
{16}1,2,3,4,5,6,7,8,1/E8,E7,E6,E5,E4,E3,E2,E1,
{16}E8/A2,D3,A3,D4,A4,D5,A8,D8,A7,D7,A6,D6,A1,A2,A3,A4,
{16}7b,5,7,5,7,5,7,5,6,4,6,4,6,4,6,4,
{16}7,3,7,3,7,3,7,3,8,2,8,2,8-4[8:1],2,8,2,
{8}8b,,3/5,4,5/7,6,5/2,3,
{8}4x/8x,4/8,3/7,3/7,2/6,2/6,1-5[8:1]*-5[8:1]/5,1/5,
{2},E7h[1:1],
{4}E3h[2:1],,C,1x-5[8:1]b,
{8}1b/8V61[4:1],,8/2xh[8:1],,3,3,4V25[4:1]/6,,
{8}4/7xh[8:1],,8-4[8:1],8,5-3^2-6[8:3]b,5,7-1[8:1],,
{8}7,,5-1[8:1],5,7h[8:1],,8-4[8:1],8,
{8}2h[8:1],,3-7[8:1],3,5h[8:1],,6,6,
{8}7qq1[8:3]/1,1,2,2,3V51[4:1],,8,8,
{8}7-4-8[4:1],,7/1,1,2-5[8:1],,2x/6,,
{12}7x/3x,,6x,5,6,5,{8}7,3,8,2,
{8}7,7,1,1,5,5,{16}1,2,3,4,
{16}5x/6b,7,8,1,2/6x,3,4,5,6,7,8/4x,1,2,3,4,5,
{16}6/2x,7,8,1,2,3,4/8x,5,6,7,8,1,2,3,4,5,
{16}6x/1b,8,7,6,5,4,3,2,1,8,7,6,5,4,3,2,
{16}1x/8b,7,6,5,8b,1,2,3,7b,6,5,4,1b,2,3,4,
{16}6/5,,,,7,4,7,4,7x,6x,5x,,1,4,1,4,
{16}1x,2x,3x,,8,4,8,4,8x,7x,6x,,1,,5,,
{16}3,4,3,,2,,8,1,8,,7,,5,6,5,,
{4}4^1[4:1],1-5[4:1],7bh[4:1],,
{16}7b,8,1,2,3,4,5/8,1,2,3,4,5,6/1,2,3,4,
{16}1b/5,2,3,4,5,6,7,8,1/6,5,4,3,2,1,8,7,
{16}6/2b,1,8,7,6,5,4/1,8,7,6,5,4,3/8,7,6,5,
{16}8b/4,7,6,5,4,3,2,1,8/3,4,5,6,7,8,1,2,
{8}3xh[4:1]/4xh[4:1],,,5h[4:1]/7h[4:1],,,1/8,,
{8}2xh[4:1]/4xh[4:1],,,5h[4:1]/6h[4:1],,,7/1,,
{8}2,4-7[8:1],3,4,,8,8-3[8:1],7,
{8}8,,6,5,4/7,3,2/6,7,
{8}8b/1b,2,4,3,,6,5,7,
{8}8/4,,2,1,,3,4,2,
{8}1/5,6,8,8,,7,8,7,
{8}1/6,,5,5,,3,3,4,
{8}2/5,2,6,6,,7,8,6,
{8}1/5,,3,4,,2,1,3,
{8}8/4,8,5,5,,7,7,8,
{8}1/6,,3/5,,{12}1h,6h,2h,7h,3h,8h,
{8}4x-8[8:1],,4,2x,,,4x/7x,,
{8}6,5,6,5,7,7,8,8,
{8}1x-5[8:1],,1,3xqq5[2:1],,,8x^5[8:1]b,,
{1}8b,
{16}6,5,6,5,7,4,7,4,8,3,8,3,7,2,7,2,
{16}6,1,6,1,5,2,5,2,4,3,4,3,4,2,4,2,
{16}5,3,5,3,6,4,6,4,7,5,7,5,8,4,8,4,
{16}1,3,1,3,8,3,8,3,7,2,7,2,6,2,6,2,
{16}5,3,5,3,6,2,6,2,7,1,7,1,8,2,8,2,
{16}1,3,1,3,1,3,1,3,8,4,8,4,8,4,8,4,
{16}7,5,7,5,7,5,7,5,7,5,7,5,6,5,6,5,
{8}8x-4[8:1],,,5x^2[8:1],,,{16}8x,7,6,5,
{16}4x/1x,2,3,4,1,8,7,6,4,3,2,1,7,6,5,4,
{16}3x/7x,6,5,4,8,7,6,5,1,8,7,6,2,1,8,7,
{16}6x/5x,4,3,2,8,7,6,5,8,1,2,3,5,6,7,8,
{16}1x/2x,3,4,5,1,2,3,4,8,1,2,3,7,8,1,2,
{16}8b/3x,4,5,6,7x/4b,8,1,2,7b/3x,4,5,6,7x/3b,8,1,2,
{16}6bx,2x,6x,2x,6x,2x,6x,2x,5bx,1x,5x,1x,5x,1x,5x,1x,
{16}4b,8,4,8,4,8,4,8,4,8,4,8,3^8[8:1],,,,
{8}3x,,5/6,,1/7,3/5,2/8,4w8[2:1]b/6,
{8},,,,,,6/5h[2:1],6,
{8}7,,8,8,1,1,4,2,
{8}5xh[2:1],,4,4,{12}4x,3x,2x,{8}1xh[4:3],,
{8}E1/B8/E8,,,,,,5,,
{12}5x,3x,6x,4x,7x,5x,{8}8,8,4,4,
{12}E7/E6/B6,,,4x,6x,3x,5x,2x,4x,{8}1,1,
{8}3,3,5,5,{12}7x,1x,6x,2x,5x,3x,
{12}E5/E4/B4,,,8x,7x,6x,5x/C,,,,,,
{12}3x,4x,3x,4x,3x,4x,{8}2,5,3,7,
{8}4,6,2,4,3,7,5,6,
{8}1,5,3,8,4,6,1,4,
{8}3,8,5,6,2,3,4,5,
{8}7b,6h[8:1],5h[8:1],4h[8:1],3h[8:1],5h[8:1],4h[8:1],3h[8:1],
{8}2xh[8:1],7h[8:1],5h[8:1],4h[8:1],2h[8:1],7h[8:1],5h[8:1],3h[8:1],
{8}1h[8:1],8h[8:1],1h[8:1],3h[8:1],5h[8:1],7h[8:1],8h[8:1],1h[8:1],
{8}2x^5[4:1],,{12}2x/1,8,7,6xh[4:1],,,5x,,,
{12}3b,4,3,4,3,4,3,,,,,,
{1}E2h[4:3],
{12}6b,5,6,5,6,5,6,,,,,,
{12}7b,8,7,8,7,8,7,,,C,,,
{12}4b,4,4,4,4,4,4,,,,,,
{4},,E3h[4:1],E4,
{12}5b,5,5,5,5,5,5,,,,,,
{12}6b,6,6,6,6,6,6,,,5/7,,,
{8}6x,4,5,5,3x,5,4,4,
{8}7x,5,6,2x,4,3,8,8,
{8}3x,5,4,4,6x,4,5,5,
{8}2x,4,3,7x,5,5,6/4,6/4,
{8}7b/3b,,2,8,1x-5[8:1],,2x>6[4:1],,
{8},B7/B8,,,1/7,7,8,8,
{8}6xV84[4:1],,4x,2-5-1[4:1],,8x,6,,
{8}2,2,8,8,3/7,6,3/5,2,
{8}1b-5[2:1],,6,6,,7,7,,
{8}8-4[2:1],,3,,,,3,,
{8}2^5[2:1],,1,1,,8,8,,
{8}7-4-6-1[4:3]/4h[4:1],,,,3h[4:1],,,,
{8}2h[2:1],,4,4,,6,6,,
{8}8h[8:3],,,1h[8:3],,,2h[4:1],,
{8}3>5[4:3],,4,4,,,6x,,
{8}7xh[2:1],,3,,4,5,2/6,,
{8}1h[8:3],,,8h[8:3],,,7h[4:1],,
{4}5-2-6-8-4[4:3],,,3,
{8}2h[8:3],,,1h[8:3],,,8h[4:1],,
{8}6-2-5^7[2:1],,,,,,1,,
{8}8/2^5[4:1],,,,7-3[4:1],,,,
{8}1-5[4:1],,,,8-4[4:1]b,,,,
{8}1^4-8[8:3]b,,7,,6,6,1,,
{16}2,,2,,6,,6,,3,4,3,,7,,7,,
{8}2b,1,2,1,2h[4:1],,5,5h[4:1],
{8}3x-7V13[4:3],,4,,5,,6,,
{8}7,8,7,8,7-5[4:1],,5-1[4:1],,
{8}4x,,2V84[8:3],,8,,7,,
{8}6,5,6,5,6h[4:1],,5h[4:1],,
{8}4x-8[4:1],,8^5[4:1],,1,,2,,
{8}3h[8:1],4h[8:1],3h[8:1],4h[8:1],2h[4:1],,6h[8:1],5h[8:1],
{8}7h[4:1],,8h[4:1],,1,1,3,3,
{8}5b<1[4:1],,,2,2x,,3h[4:1],,
{8}5,4,6,3,8x-4[4:1],,1,,
{8}2-5[4:1],,,7,7x^2[4:1],,,,
{8}3,3,4,4,1^4[4:1]b,,,,
{8}6b,6,5,7,,1,3,2,
{8}2b,,5,5,,1,1,8,
{8}2,2,7,7,4,4,6,6,
{8}1/5,,3,4,2xw6[8:1],,2x,,
{1}8h[4:11],
{4},2-6[8:1]b,2x,,
{4},,,B1,
{8}6b/2V83[8:3],,2/7-3[8:1],,7,,2/6V48[8:3],,
{8}6/3-8[8:1],,3,,4/7V16[8:3],,7/2-6[8:1],,
{8}2,,7/3,,{16}8/1,2,3,4,8,7,6,5,
{8}4/2bV48[8:3],,2/7-4[8:1],,7,,2/6V84[8:3],,
{8}6/3-8[8:1],,3,,3/7V51[8:3],,7/2-5[8:1],,
{8}2,,7/3,,6h[8:1],5h[8:1],4h[8:1],2h[8:1],
{8}8b-4[8:1],8,2-6[8:1],2,7-4[8:1],7,3-7[8:1],3,
{8}1-6[8:1],1,5-2[8:1],5,7-3[8:1],7,1-5[8:1],1,
{8}6-1[8:1],6,3,3,5^8[8:1]b,,5x,,
{8}1b-5[8:1],1,7-3[8:1],7,2-5[8:1],2,6-2[8:1],6,
{8}8-3[8:1],8,4-7[8:1],4,2-6[8:1],2,8-4[8:1],8,
{8}3^8[8:1],3,7,7,5w1[8:1]b,,5x,,
{8}3b/7b,6,1/5,1/5,2/6,2,3/7,7,
{8}4/8,4/8,3/7,3,2/6,6,3/7,3/7,
{8}4/8,3,2/6,,8x/4x,8x/4x,8x/4x,8x/4x,
{8}3bx/7bx,3/7,3/7,3/7,2/6,2/6,2/6,2/6,
{8}1/5,1/5,1/5,1/5,4/8,4/8,4/8,4/8,
{16}3x/7x,4x,5x,6x,7x/3x,8x,1x,2x,{8}3/B1f,B7f,B3f,B5f,
{12}2,4,3,8,6,7,1,5,3,6,4,8,
{12}2,7,5,1,2,4,8,6,4,7,2,5,
{12}1,7,5,8,2,4,3,8,5,6,1,4,
{6}2xh[3:2],,,,4h[6:1],3h[6:1],
{6}1h[6:1],5h[6:1],7h[6:1],8h[6:1],4h[6:1],2h[6:1],
{6}8h[6:1],6h[6:1],4h[6:1],2h[6:1],1h[6:1],5h[6:1],
{16}7b,6,7,6,7,6,7,6,7,6,7,6,7,6,7,6,
{16}7,6,7,6,7,6,7,6,7b,6,7,6,7b,6,7,6,
{16}8b,5,8,5,8,5,8,5,8,5,8,5,8,5,8,5,
{1}8v7-4-2-5[4:3]b,
{8}1,1,2/6,2/6,7,7,4/8,4/8,
{8}3,3,2/5,2/5,6,6,7/3,7/3,
{8}4,4,8/5,8/5,7,7,6/2,6/2,
{1}1b-6-8-3v4[8:5]b/5b,
{8}8-4[8:1],8,3,3,5/2-6[8:1],2,7,7,
{16}1,2,3,4,5/8,,8,,1x/7x,2,3,4,5x/6x,7,8,1,
{16}2x/3x,4,5,6,7,8,1,2,3/7,6,5,4,3/1,,1,,
{16}8x/2x,7,6,5,4/1,,1,,2x/8x,7,6,5,4x/3x,2,1,8,
{16}7x/6bx,5,4,3,2-6[8:1],1,8,7,6x/2x,5,4,3,2-6[8:1]*-6[8:1],1,8,7,
{16}6x/2x,5,4,3,2-6[8:1]b,1,8,7,6x/2x,5,4,3,2,1,8,7,
{2}6b/Cf,1b<4[4:2],
{4}4b>6[2:1],,6bV42[4:1]b,,
{8}7-3[8:1],7,1V38[4:1],,1/5h[8:1],,6-1[8:1],6,
{8}4V25[4:1],,4/7h[8:1],,8-6^5-1[8:3]b,8,2-4[8:1],,
{8}2,,8-4[8:1],8,2h[8:1],,3-7[8:1],3,
{8}5h[8:1],,6-2[8:1],6,8h[8:1],,1,1,
{8}2/7,6,5/3,4,5/8,7,6/2,3,
{8}4/5,6,7/3,2,1/6,7,8/2,1,
{8}8/7-3[8:1],7,8-4[8:1],8,1-5[8:1],1,2,2,
{16}8,7,6,5,4/3-8[8:1],,3,,4-7[8:1],,4,,1w5[8:1]b,,,,
{16}1b,,,,3,7,3,7,4,6,4,6,5,6,5,6,
{16}4,6,4,6,3,5,3,5,3,4,3,4,3,5,3,5,
{16}2,5,2,5,2,6,2,6,3,5,3,5,4,5,4,5,
{16}3,5,3,5,2,4,2,4,2,3,2,3,2,4,2,4,
{16}1b,2,3,4,5x/8x,7,6,5,1x/4x,8,7,6,5,4,3,2,
{16}1x/7x,6,5,4,3,2,1,8,7x/3x,4,5,6,7-4[8:1]b,8,1,2,
{2}3b/7b,5b<2[4:2],
{4}2b-4^6-8[2:1],,8b,1x-5[8:1]b,
{8}1b/8b,,4xh[16:1]/6-8[8:1],4xh[16:1],3xh[16:1],3xh[16:1],4xh[16:1]/5-1[8:1],4xh[16:1],
{8}3xh[16:1],3xh[16:1],2xh[16:1]/8-4[8:1],2xh[16:1],3xh[16:1],3xh[16:1],2xh[16:1],2xh[16:1],
{8}1bx-5[8:1]/8xh[16:1],8xh[16:1],7xh[16:1],7xh[16:1],6xh[16:1]/4-8[8:1],6xh[16:1],7xh[16:1],7xh[16:1],
{16}1b,2,3,4,5,6,7,8,1/6b,5,4,3,2,1,8,7,
{16}6b/2b,,,,3,5,3,5,3,5,3,5,2,5,2,5,
{16}1,6,1,6,1,6,2,6,2,6,2,6,1,6,1,6,
{16}8,7,8,7,8,7,8,7,8,7,8,7,8,7,8,7,
{8}1,1,3,3,5,5,7,7,
{8}1b/8b,2,4,3,,6,5,7,
{8}8/4,,2,2,,3,4,2,
{8}1/5,6,8,8,,7,7,8,
{8}1/6,,3,3,,5,4,6,
{8}3/7,2,1,1,,,3,4,
{8}2/5,,1,1,,7,7,,
{8}4,4,6,6,,,{12}2x,3x,4x,
{8}5x/6,,7,,{16}8,7,6,5,8,1,2,3,
{8}7x-4[8:1],5,7,3-7[8:1],5,3,8h[2:1],,
{8},,5-1[8:1],,5x/7,7,2,2,
{8}8x-4[8:1],,8,6xpp4[2:1],,,1x^4[8:1]b,,
{2}1b,B4fh[2:1],
(210)
{1}8bh[1:4],,,,
(211)
{1}1b,,
{1}5b/7b,,
{4}4h[1:2]/5,5,5,5,
{4}6,6,6,6,
{8}7,7,3,3,8,8,2,2,
{16}7,1,6,2,5,3,4w8[4:1],,{2},
{16}2b,4,3,4,3,4,3,,6x,5,7,5,7,5,7,,
{16},,2,8,1,8,1,8,2x,1,2,1,3x,8,3,8,
{16}4x,7,5,7,5,7,5,,8x,1,7,1,7,1,7,,
{16},,3x,4,2,4,2,4,3x,5,2,4,3x,5,2,4,
{16}1b,5,1,5,1,5,1,,7x,3,7,3,7,3,7,,
{16},,4,5,4,5,4,5,3x,1,3,1,4x,8,4,8,
{16}5x,7,6,7,6,7,6,,8x,2,1,2,1,2,1,,
{16},,4,,5,,6,,7/8,,1/6,,2xv5V38[8:3]b/5x,3,4/8x,7,
{16}6b/2b,,,,7-3[8:1],,,,2-5-1[4:1]/7,,,,2/6V84[4:1],,,,
{16}6,,,,1-5[8:1],,,,1V38[4:1],,6x,7x,8x-4[8:1]b/1,,8x,7x,
{16}6xbV41[4:1],,,,1s5-7[8:3]b,,2,,3h[8:3],,,,,,,,
{16}2/8,,4,,1/7,,5^7-4[4:1],,1/8,,4x-8[8:1]b/5x,3x,2x,,3x,2x,
{16}1bx-5[8:1],,,,1/8-4[8:1],,7,,1V35[8:1]/8,,2,,1/8V61[4:1],,7,,
{16}1-5-2[4:1]b/8,,,,3h[8:1],,,,4,8,3,7,2,6,1,5,
{8}8x-3[8:1],4,8,6x-1[8:1],2,6,4x-7[8:1],8,
{16}4,,2x-5[8:1]b,,6,,2,,8,1,2,3,8,7,6,5,
{16}2b,4,3,4,3,4,1b,5,4,5,4,5,3b,6,5,6,
{4}A2fh[1:1],6b,7b,8b-4[8:1]b,
{4}8bx-4pp5^8[4:3],,3h[8:1],3h[8:1],
{4}3h[8:1],4h[8:1]/8,4h[8:1]/7,6/4h[8:1],
{4}5pp8[2:1]/3h[8:1],3h[8:1],3h[8:1],2h[8:1],
{16}1/8,2,3,4,5h[4:1]/6,,7,,8,7,6,5,4h[4:1]/3,,2,,
{4}1b-5V38[4:2],6h[8:1],6h[8:1],6h[8:1],
{4}5h[8:1]/7-4-8pp1[4:3],5h[8:1],5h[8:1],5h[8:1],
{4}4h[8:1],4h[8:1],E2h[4:1]/4h[8:1],4h[8:1],
{16}5/Ch[4:1],6,7,8,1h[4:1],,,,2,,,,3,4,3,4,
{16}2,,1/8,,7,,1/8,,2,1,2,,7,,1/8,,
{16}6,,7/1,,3,,8/2,,7,1,7,,2,,8/1,,
{16}7,6,5/4,,3,,5/4,,6,,5/4,,3,,5/4,,
{16}2,3,4/7,,8,,5/7,,4,,5/6,,7,,4/6,,
{8}1,5/3,7,5/4,2,5/6,8,6/4,
{8}2,5/4,7,5/3,1,3/5,7,5/4,
{16}1,,2/4,,8,,5/7,,1,,3/5,,8,7,6,5,
{16}2,4,2,4,3,5,3,5,4,6,4,6,5,7,5,7,
{1}6bx-2[2:5]b,,,
(270)
{1}Cf/E1h[2:13]/B8h[2:13]/B1h[2:13]/E5h[2:13]/B5h[2:13]/B4h[2:13],,,,,,,,
{32}Ch[174.911#1:8],,,,,,,,,,,,,,,,,,,,,,,,,,,,,,,,
{32},,,,,,,,,,,,,,,,,,E2,,,,,,,,,,,,,,
{32},,,,,,,,,,,,,,,,,,,E1,,,,,,,,,,,,,
{32},,,,,,,,,,,,,,,,,,,,,,E8,,,,,,,,,,
{32},,,,,,,,,,,,,,,,,,,,,,,,E7,,,,,,,,
{32},,,,,,,,,,,,,,,,,,,,,,,,,,,,E6,,,,
{32},,,,,,,,,,,,,,,,,,,,,,,,,,,,,,,,
{32},,,,E5,,,,,,,,,,,,,,,,,,,,,,,,,,,,
(248.35)
{32},,,,,,,E4,,,,,,,,,,,,,,,,,,,,,,,,,
{32},,,,,,,E3,,,,,,,,,,,,,,,,,,,,,,,,,
{32},,,,,,,,,,,,E2,,,,,,,,,,,,,,,,,,,,
{32},,,,,,,,,,,,,,,E1h[32:17],,,,,,,,,,,,,,,,,
(144)
{8},,,,,,5^7-3[4:1],4,
(270)
{8}3b/5,,,E1,,,8/4,,
{12}1/5,,,2,3,4,{8}5/7,7,1^3-7[2:1],8,
{8}7b/1,,,E5,,,1/6,,
{4}2/5,{12}3,4,3,{8}5,2,6,1,
{8}7x,8,6,3x,4,2,7x,5,
{8}6,3x,1,2,7x,7,3,3,
{16}5h[4:1],,,,1,2,3,4,7,6,5,4,8,1,2,3,
{16}4/8,5,6,7,8/4,1,2,3,4x/8x,,7x,,6x/1x,,2x,,
{8}3h[4:1]/4h[4:1],,,4h[8:1]/5,,,5/7,,
{8}5h[4:1]/7h[4:1],,,4/6h[8:1],,,5/2,,
{8}3,8b,5,6,1b,3,{16}C,B5,A5,,
{4}7b,3x,2x,1x,
{1}8b/E6/B5/E5/D5/A5/Cf,,
{1}6b/E2/B2/E3/D3f/A2,
{8}2x/A7f/E7,,,6x/D4f/A4,,,8x-4[8:1]b/Cf,,
{8}8b/3b^8[8:1],3,7-3[8:1],7,1-5[8:1],1,6-1[8:1],6,
{8}4-8[8:1],4,7^4[8:1],7,3-7[8:1],3,8-4[8:1],8,
{8}2-6[8:1],2,7-3[8:1],7,1-5[8:1],1,6,6,
{8}4/7,3,2/8,7,6/1,2,3/5,6,
{8}7/4,5,6,B3/E3,,8,8,4,
{16}A7,D7,A6,D6,A5/A1,D2,A2,D3,A3/8,,8,,2,,2,,
{16}6,4,6,4,6,4,6,4,7,5,7,5,7,5,7,5,
{8}8,8,1,1,2,2,3,3,
{16}4b,,,,2,1,2,1,2,1,2,1,2,1,2,1,
{16}2x,3,4,5,8,7,6,5,1,2,3,4,7,6,5,4,
{4}C,,6b<4[2:1],,
{4}4b-6-8-2[2:1],,2bq7b[4:1],,
{16}1b,8,1,8,1,8,1,8,1,8,1,8,1,8,1,8,
{16}1,8,1,8,1,8,1,8,2,7,2,7,2,7,2,7,
{16}3,6,3,6,3,6,3,6,2,7,2,7,2,7,2,7,
{16}1,8,1,8,1,8,1,8,2,7,2,7,2,7,2,7,
{16}3,6,3,6,3,6,4,5,4,5,4,5,3,5,3,5,
{16}2,6,2,6,2,6,3,5,3,5,3,5,2,6,2,6,
{8}1,7,2,E1/B8,,3,3,5,
{8}4,C,,,1h[8:1]/7h[8:1],,2h[8:1]/6h[8:1],,
{8}3h[2:1]/5,,E8,,4,2,5,3,
{8}6h[2:1],,E2,,5,7,4,6,
{8}3,,2,,1,,8,,
{8}7b,7b,5b,5b,3b,3b,1b-5[8:1]b,1b,
{8}Cf/6b,,E8,,3-1[8:1],8,8-4[8:1],,
{8}3,,E2,,6-8[8:1],1,1-5^2[8:3],,
{8}B3,,6^1-5[8:3],,B7,,2-4-8[8:3],,
{8}E2,,7<4[4:1],,4,3,2qq5[8:5],,
{8}4,,6,6pp1[4:3],,,4,,
{8}3,,2-5V38[8:5],,8,,7,,
{8}6h[2:1],,2,2,,,4-7V51[4:3],,
{8}E3,,2,,1<4[2:1]b,2,3-7[8:1]b,,
{8}Cf,,8,8,,,3/5,,
{8}1p5-2-4[4:3]/7,,C,,8,,7,,
{4}6^1[2:1],A3,5q1[2:1],B3,
{4}4v1[2:1],B7,3-1[4:1],A7,
{8}8<4[2:1],,2,2,,,3,,
{8}3pp8[4:3],,1,,E5/B4/B5,,7,,
{8}5,,1,1,7,8,6,1,
{8}5,2,4,3,Cf,,,,
{16}2b,6,2,6,2,6,2,6,2,6,2,6,2,6,2,6,
{16}2,6,2,6,2,6,2,6,2,6,2,6,2,6,2,6,
{16}3b,7,3,7,3,7,3,7,3,7,3,7,3,7,3,7,
{16}3,7,3,7,3,7,3,7,3,7,3,7,3,7,3,7,
{16}4b,6,4,6,4,6,4,6,4,6,4,6,4,6,4,6,
{16}3b,7,3,7,3,7,3,7,3,7,3,7,3,7,3,7,
{8}2b,2,8,1,,7,7,3,
{8}5,5,4,4,3,3,2,2,
{8}8b,1,7,7,,3,3,4,
{8}2x/5x,,1,1,,3,4,3,
{8}5,5,6,6,,7,8,7,
{8}6x/1x,,5,5,,3,4,3,
{8}5,5,6,6,,,7,8,
{8}6x/1x,,6,6,,8,8,,
{8}6,5,6,5,,7,7,8,
{16}1x/5x,,,,7,,,,1,2,3,4,8,7,6,5,
{8}2x^5[8:1],1,2,7x-3[8:1],8,7,1x,1,
{8}6x^1[8:1],5,6,3x-7[8:1],4,3,5x,5,
{1}B1f,,
{1}4b/5b,,
{16}4,6,4,6,3,5,3,5,2,6,2,6,1,7,1,7,
{16}2,8,2,8,3,7,3,7,4,6,4,6,5,7,5,7,
{16}4,8,4,8,3,1,3,1,2,8,2,8,1,7,1,7,
{16}8,6,8,6,8,6,8,6,1,5,1,5,1,5,1,5,
{16}2,4,2,4,2,4,2,4,2,4,2,4,3,4,3,4,
{16}1x^4[8:1],,,,5,6,7-3[8:1],,,,,,B1,,,,
{16}2,3,4,5,1,2,3,4,8,1,2,3,7,8,1,2,
{16}3x/6x,7,8,1,5,6,7,8,4,5,6,7,3,4,5,6,
{16}7x/3x,2,1,8,4,3,2,1,5,4,3,2,6,5,4,3,
{16}2x/7x,6,5,4,8,7,6,5,1,8,7,6,2,1,8,7,
{16}1b/6x,5,4,3,2x/5b,1,8,7,6x/2b,5,4,3,2x/6b,1,8,7,
{16}3b,7,3,7,3,7,3,7,2,8,2,8,2,8,2,8,1,1,1,1,1,1,1,1,1,1,1,1,1xpp3^2-5[8:3]*qq7^8-5[8:3],,,,
{8},,,,4/6,2/8,3/5,1/7,
{8}3x-8[8:1],5,3,7x-4[8:1],1,7,2x^5[8:1],1,
{8}2,8x-4[8:1],6,8,3,2,1/4,5,
{8}6x-1[8:1],4,6,2x-5[8:1],8,2,7x^4[8:1],8,
{8}7,1x-5[8:1],3,1,6,7,8/5-1[8:1]b,4,
{8}5b/3x,2h[8:1],,2h[8:1],,2h[8:1],8x-3[8:1]b,3h[8:1],
{8}8b,4h[8:1],,4h[8:1],,5h[8:1],4x-8[8:1]b,6h[8:1],
{8}4b,7h[8:1],,7h[8:1],,7h[8:1],2x^5[8:1]b,8h[8:1],
{8}2b,8h[8:1],,7h[8:1],,6h[8:1],,5h[8:1],
{16}Cf,,,,2,1,2,,3,,5,4,5,,6,,
{16}7,,7,,1,,1,2,3/8,,8,7,6/2,,2,3,
{16}4/8,7,6,5,4,3,2,1,8/4,3,2,1,8,7,6,5,
{16}8,1,2,3,4^2v5[8:3]/8^6v1[8:3],7,6,5,4/8,,,,,,,,
{8}3b-8[8:1]/7b,3,3/6-2[8:1],6,6^1[8:1]/1^4[8:1],1,1v7[8:1]b/6,,
{8}5-2[8:1],5,5/8^5[8:1],8,8^3[8:1]/3-6[8:1],3,3-7[8:1]b/8,,
{8}1-5[8:1],1,1/6-2[8:1],6,6^1[8:1]/3^6[8:1],,3/6V42[8:1]b,,
{8}7-3[8:1],7,7/1-5[8:1],1-6[8:1],1x-4[8:1],1x^7-5[8:1]b,,,
{16}2b,4,3,4,3,4,2b,5,4,5,4,5,2b,6,5,6,
{16}1b,7,2,6,3,5,2b,8,3,7,4,6,2b,8,4,6,
{16}1b,2,3/8,1,2,3,4/8b,7,6/1,8,7,6,5/1b,2,3,4,
{24}7b,8,1,2,3,4,5/7,8,1,2,3,4,5/7,8,1,2,3,4,5/1,6/2,7/3,8/4,1/5,2/6,
{1}3b/7bw3[33.75#64:1]b,,
{1}7b,,E
