&title=CHANGE THE DESTiNY
&artist=ソーサレス*アライヴ!~the World's End Fallen Star~ 2ndオープニング
&first=0
&des=Tane
&freemsg=ソーサレス*アライヴ!~the World's End Fallen Star~ 2ndオープニング
&wholebpm=
&des_1=Tane
&des_2=Tane
&des_3=Tane
&des_4=Tane
&des_5=Tane
&lv_5=12
&inote_5=(145){1},
{1}1>7[2:3],,
{1}8<2[2:3],,
{8}3h[4:3],,4,,
5,5,5,,
{8}6h[4:3],,5,,
4,4,4,,
{8}2h[4:3],,3,,
5,5,5,,
{8}7h[4:3],,6,,
4,4,4,,
{8}4/5h[8:1],3,4,3h[8:3],
4,5,5,,
{8}5/4h[8:1],6,5,6h[8:3],
5,4,4,,
{8}47,,12,12,
,78,78,,
{4}1-5[8:1],7-3[8:1],4-8[8:1],7<1[4:3],
{1},
{8}34,,3,4,3,,42,,
3,4,1,,25,,34,,
{8}1,5,3,,3,4,2,,
15,,34,,3,3,5,5,
{8}56,,57,6,
5,7,,24,
5,2,,25,
6,4,7,,
{8}12,8,,78,
,12,,2,
36,,4-1[8:1]/5-8[8:1],,,,27,,
{16}7h[8:1]/8,,,7h[8:1]/4-8[16:1],
,,7h[4:1],,
,,,,
7,8,7,,
{16}1h[8:1]/2h[8:1],,,1<5[4:1]/8,
,,6>2[4:1],,
,,,,
,,,,
{16}2-5[8:1],,,6,
2,,7,,
7h[8:2]/8,,,,
1,,1/8h[4:1],,
{16},,1,,
12,,,,
1-5[8:1]/2,,,,
18,,6,,
{16}5h[8:1]/7h[8:1],,,4h[8:1]/5h[8:1],
,,2h[4:1]/4,,
,,,,
3,4,3,,
{16}2-6[16:1],,,5-8[16:1],
,,1-4[8:1],,
,,,,
8,,8,,
{16}7-4[8:1],,,3,
7,,2,,
2h[8:2]/1,,,,
8,,18,,
{16}1-4[16:1],,,5-8[16:1],
,,3>6[16:5],,
,,,,
,,,,
{1}8b,
{8}6,,,,
,,,4b,
{1},
{8}2b,,,,
,,,1p1[8:6],
{1},
{16}5,4,5,4,
6,3,6,3,
5,4,6,3,
5,4,6,3,
{16}2^5[8:1]/5,,,8,
2,,7,,
6-1[8:1],,6,,
2-5[8:1],,2,,
{8}7-4[8:1],,78,,
1-5[8:1],2,12,,
{16}3-8[8:1]/7-4[8:1],,,,
37,,,,
2-7[8:1],,2,,
6-3[8:1],,6,,
{8}1-5[8:1],,18,,
7-4[8:1],8,17,3,
{16}3-1[8:1]/8-4[8:1],,,,
38,,,,
1-4[8:1],,1,,
5-8[8:1],,5,,
{8}3^6[8:1],,8,,
7-4[8:1],7,3,3,
{16}2^5[8:1],,,6,
2,,7,,
8-4[8:1],,,3,
8,,2,,
{16}1,,1,8,
2,,6,,
4,5,3,6,
2,7,1,,
{8}18,2,34,6,
57,6,45,3,
{4}2-6[8:1],72,8<1[8:7],{8}1,1,
{8},,,,
,,8-4[8:1],,
{8}8,1,2,1-5[8:1],
{16},,18,,
,,7,,
{16}6-1[8:1],,6,,
3-7[8:1],,3,,
8-5[8:1],,8,,
1>6[8:3],,,,
{8}13,,,,
2-5[8:1],2,6,6,
{16}7^4[8:1],,,3,
7,,2,,
1-5[8:1],,,6,
1,,7,,
{16}8,3,7,2,
6,,1,,
7,8,5,2,
6,4,7,,
{8}8^5[8:1],,3,,
1^4[8:1],,6,,
{8}8^3[8:1],7,6,5^8[8:1],
4,3,2^5[8:1],1,
{8}8h[4:1],,5,5,
3h[4:1],,4,4,
{16}45,,6,4,
7,,45,,
3,5,2,,
45,,18,,
{16}27,,2,1,
38,,3,4,
25,,6,5,
47,,4,5,
{8}36,15,47,26,
48,36,25,37,
{16}4,6,1,,
37,,8,4,
7,,1,6,
2,,37,,
{16}8,4,6,2,
5,,4/8,,
,,1-5[8:1],,
8,,1,,
{4}7V51[4:1],1V38[4:1],8v5[8:1],,
{4}2V48[4:1],8V61[4:1],1v4[8:1],,
{4}5V74[4:1],4V28[4:1],8v5[8:1],,
{4}4V25[4:1],5V71[4:1],1v4[8:1],,
{8}5/6^1[8:5],,,4,
,,3,,
{8}4/3^8[8:5],,,5,
,,6,,
{8}6h[4:3],,,4,
,,5,,
{8}7h[4:3],,,8,
,,1,,
{8}2h[4:3],,,1,
,,8,,
(1){1},E
