&title=燦々
&artist=Afterglow
&first=0
&des=DJL2374
&lv_6=14
&des_6=DJL2374
&inote_6=
(196){4},,,,,,,,4/8h[4:1],
2h[4:1],6h[4:1],4h[4:1],
{16}5h[16:3],{8},{16}3-7[16:19],{8},,,,,,,,,,,6,
{16}8/6b,1x,2x,3x,
{8}4/8,8,4,7,7,4,6,6,
3,5,5,3,4/2,1/5,1/6,1,
4,4,2,5,5,3,6,6,
4,7,7,{16}5,6,{8}5,7/4b,6b/3,3,
4/2h[4:1],4,,8/2h[4:1],{4}8,{8}6/2h[4:1],6,
,4/2h[4:1],{4}4,{8}5,3,6,4,
7,5,6/4,4,3/7,6,6,5/2,
1,1,8/7,6/1,8/7,{16}1,8,{8}1,{16}8/2bx,7x,
6x,5x,{8}4,{4}6/1h[4:1],{8}8,1,8-6[8:1],4,
8-2[8:1],3,8-4[8:1],4-6[8:1],8,{16}1-5[8:1],2,{8}3,{16}1x/8-4[8:1],7,
{8}6,8x,3,5,2,6,1-3[8:1],5,
1-7[8:1],6,1-5[8:1],5-3[8:1],1,8b,{4}8b-5[8:1],
{8}8/3,3,3,5,4-7[8:1]/3-8[8:1],5/2,{4}4/3,
{8}1-5[8:1],2,1,8-4[8:1],7,8,2-7[8:1],2,
2/6-3[8:1],6,6/1-4[8:1],1,1/5-8[8:1],5,{4}5/1h[8:1],
7h[8:1],{16}1,8/2,7/3,6/4,{8}5b,{16}4,6,{8}3-1[8:1],7-5[8:1],
3,7,8-4[8:1],4-2[8:1],8,{16}5,6,{8}7-1[8:1],3x,
7-5[8:1],4,7-3[8:1],3-1[8:1],{4}7,{8}4-6[8:1],8-2[8:1],
4b,8b,,5,1,5,1,6h[4:1],
{4}2h[8:1],{16}6/2,5/1,4/8,7/3,{8}6/2,6x,2,4bx,
{4}2bx/6bx,{8}6/1,7,8/3,7/4,8/3>7[4:1],7/4,
{4}3/7<3[4:1],3>7[4:1],7V53[4:1],3bV17[4:1],
7b-4[4:1],4b-1[4:1],1b-6[4:1],6bz2[2:1],
2bx,2bx-5[4:1],{8}5bx,6bx,{4}7bx,
8,7/2,6/3,{8}5,1b,
7,4,6,2,3,8,{4}6/2,
1,2/7,3/6,{8}4,8b,
2,5,3,7,6/3,1,7/2,3,
{4}7/2,8-6[8:1],{6}3/8,{12}4h[12:1],5h[4:1],{6},{4}3,
4-2[8:1],{6}7/4,{12}8h[12:1],1h[4:1],{6},{4}7,
{8}7/1h[4:1],6,5h[8:1],{16}2,3,{8}6/4,4b/5h[8:1],
,4b/5h[8:1],,{16}6b/3x,4x,3x,4x,3x,4x,{8}6bx/3x,8/2h[8:1],
,2/8h[8:1],,1/7h[8:1],,7/1h[8:1],,8/6h[8:1],
,6/8h[8:1],,7/5h[8:1],,5/7h[8:1],{4}5-2[4:1],
2-7[4:1],7-4[4:1],4-1[4:1],1-6[4:1],
{2}6,{8}1/7,7/2,7/3,4,
5/6,7,6/5,4,6/5,7,5/6,4,
6/5,7,{16}5,6,5,7,5,6,5,8,5,6,5,1,
{4}5bx,5/4b,5/3b,5/2b,
5/1b,5b-8[8:1]/1b-4[8:1],{2}5b/1b,
{8}8-6[8:1],1/5-1[8:1],8,5,{4}8-4[8:1],8/1-3[8:1],
{8}7/1,6-4[8:1],7/3x-7[8:1],6x,3x,5h[8:1],{4}2<7[8:1],
{8}2/5-1[8:1],4-8[8:1],5,4,{4}7-5[8:1],7/8-4[6:1],
8b/1-3[8:1],7b<4[8:1]/1>4[8:1],{2}7b/1b,
{8}1-3[8:1],8/4-8[8:1],1,4,{4}1-5[8:1],1/8-6[8:1],
{8}2/8,3-5[8:1],6x-2[8:1],3x,6x,4h[8:1],{4}7>2[8:1],
{8}7/4-8[8:1],5-1[8:1],4,5,{4}2-4[8:1],2/1-5[6:1],
1b/8-6[8:1],2>5[8:1]/8b<5[8:1],{2}8b/2b,
{8}2<6[4:1],5/3,2/6<2[4:1],5,{4}5-1[8:1],5,
{8}3-8[8:1],4/7-4[8:1],3,7,{4}1h[8:1],5-8[8:1],
{8}5-2[8:1],4,5,7,{4}7h[4:1],1b-4[8:1]*-3[8:1],
1b-7[8:1]*-6[8:1],1-5[8:1]*w5[8:1],{2}1bx,
{8}4-2[8:1],5/1-5[8:1],4,1,{4}4-8[8:1],4/5-7[8:1],
{8}3/5,2-8[8:1],7x-3[8:1],2x,7x,1h[8:1],{4},{8}2,
7,3,8,4,1h[4:1],{4}5h[8:1],
6h[8:1]/2h[8:1],{32}6/2,5/1,4/8,3/7,2/6,1,8,7,6,5,4,3,2,1,8,7,{4}6,
7V53[4:1],{8}5,1,{4}1-4[8:1],1/5-8[8:1],
5/3-1[8:1],{8}3/7-5[8:1],7,{2}7,
{16}1,2,3,4,5/7,4,3,2,1/8,7,6,5,4/2,5,6,7,
{24}8/1bx,2,3,4,{12},{24}1/8bx,7,6,5,{12},{24}8bx/1bx,2/7,3/6,4/5,{3},{4}2V46[4:1],
{8}4,8,{4}8-5[8:1],8/4-1[8:1],
4/6-8[8:1],{8}6/2-4[8:1],1,{4}2,2/6-2[8:1],
6/3-7[8:1],3/8-4[8:1],8/2-6[8:1],2/1-5[8:1],
1b/8b-4[8:1],8b/7b-3[8:1],{2}7b/6b,
{8}6/1h[8:1],5,7/2h[8:1],6,8/3h[8:1],7,4/7h[8:1],3,
4/6h[8:1],3,{12}5,5/2h[12:1],6h[12:1],3,3/7h[12:1],4h[12:1],8,8/3h[12:1],7h[12:1],
{16}2,6,3,7,4,8,3,7,2,6,2,6,{8}2,7-5[8:1],
1,7,1,5x-7[8:1],1,5,1,7x,
{12}2,3,4,5/1,8,7,6/4,3,2,1/7,6,5,
4/8,1,2,3/5,6,7,8/2,3,4,5/7,6,5,
4/7,6,5,{24}4,3,2,1,8,7,6,5,4,3,2,1,8,7,6,5,4,3,
{4}5b/2b,4b/1b,{16}1/4,5/2,6/3,7/4,{4}8b/5b,
4,{8}4,4,,7,{4}4,
4,{8}4,4,,1,{4}4,
4,{8}4,4,,7,{4}4,
4,{8}4,4,,4,4/6b,4,
{4}4/3,{8}4/2,4,6,4,{4}4/8,
{8}4/7,3,4/7,4/8,1,4,{4}4,
{8}4/7,8,4/1,4/2,1,4/8,4/7,6,
5/3,4,5/3>8[8:1],6,{2}3/7,
{8}8>3[8:1],7,6,5<8[8:1],4,3,2>5[8:1],1,
8,7>2[8:1],6,5,{2}4,
{4}1-5[8:1],{8}1/8-6[8:1],6-2[8:1],{2}8/3h[4:1],
{16}4/8,3/7,2/6,1/5,{8}4-7[8:1]/8-3[8:1],8/4,{2}4/8,
{8}1<6[8:1],2,3,4>1[8:1],5,6,7<4[8:1],8,
1,2<7[8:1],3,4,{4}5,{8}4/2,5,
4/6-1[8:1],5,3/6,3-8[8:1],{16}8,7,6,5,{4}4,
{16}5/1,6/2,7/3,8/4,{8}5-2[8:1]/1-6[8:1],5/1,{2}5/1,
{8}3,8-4[8:1],4-6[8:1],8,{16}1-5[8:1],2,{8}3,{16}1x/8-4[8:1],7,{8}6,
8x/2-6[8:1],2,7-3[8:1]/2-8[8:1],7,{2}7/2,
{8}6,1-5[8:1],5-3[8:1],1,{16}8-4[8:1],7,{8}6,{16}8x/1-5[8:1],2,{8}3,
1x/7-3[8:1],7,2-6[8:1]/7-1[8:1],2,{2}2/7,
{8}8b/1,1,3b/1,1,4b/2,2,5b/2,{16}2,3,
{8}6b/4,4,7b/4,4,8b/5h[4:1],6,7,{16}4,3,
{8}2/6,1/8,5/3,7/2,6/4,8/3,6/2,4,
{24}5,6,7,8/4,3,2,{16}1b/7,2x,6,2,5,3,6,4,{4}7b,
E
