&title=NIGHT OF FIRE
&artist=NIKO [cover]
&first=0
&des=ホシノニャイン
&lv_6=14
&inote_6=(155.3)
{4},,,,
{8}4/5<8[8:1],,4>1[8:1]/5,,4,8h[8:3],,,
{1}2V48[4:3],6V84[4:3],5<1[4:2]*>1[4:2],
{8}1>4[8:1]/8,,1/8<5[8:1],,8,4h[8:9],,,
{4}5,6,7,8h[8:8],
{4}1,2,3,4,
{16}48,,,37,,,26,,,15,,,7/8V64[8:3],,12,,1h[8:3]/8,,,,,,,,
{8}15,37,
{16}6,4,6,,3,5,5,4,4,6,6,,
{16}4,5,3,6,4,5,3,6,4,5,3,6,4,5,3,6,
{8}45,12,
{16}3,4,2,,2,8,8,1,1,7,7,,
{16}1,8,2,7,1,8,2,7,1,8,2,7,1,8,2,7,
{8}18,56,
{16}7,8,6,,6,4,4,5,5,3,3,,
{16}5,4,6,3,5,4,6,3,5,4,6,3,5,4,6,3,
{8}45,78,
{16}6,8,7,,7,1,1,8,8,2,2,,
{32}1b/7b,6,5,,,,8b/2b,3,4,,,,7b/4b,63,52,,,,5b/2b,36,47,,,,8,,,,1,,,,
{8}2q6[8:1],35,2,7q3[8:1],6/4-8[8:1],7,4,,
{8}7-4[8:1],64,3-8[8:1]/7,2,3,6-1[8:1],
{16}2-5[8:1],2,6,,
{8}2,8,
{16}17,26,35,,4,4,7,4,4,1,4h[8:1],,
{16}8,4,6,2,8,4,6,2,5,1,7,3,5,1,7,3,
{8}5<8[8:1],64,5,1>4[8:1],2/8-5[8:1],1,8,,
{8}3v8[8:1],7,6v1[8:1],2,6,4-2[8:1],
{16}5-7[8:1],5,4,,
{8}5,1,
{16}28,37,46,,5,5,8,5,5,2,5h[8:1],,
{16}1b,7,8,6b,5,7,3b,4,2,8b,1,7,1b,,2b,,
{8}3bv6[8:1],,3,7v2[8:1],,7/4v1[8:1],,
{16}8v5[8:1]/4,,,,8,,2,2,3,4,4-1[8:1]*-7[8:1],,,,4,,,,
{8}8-4[8:1],4-8[8:1],,,1-5[8:1],5-1[8:1],,,
{16}8,7,6<1[8:1],,75,,6,,,,2,3,4>1[8:1],,35,,
{8}4,,17,8-6[8:1]*-2[8:1],,8w4[8:1],
{16},,8,,,,26,,17,,35,,4-6[8:1]*-7[8:1],,,,4-2[8:1]*-1[8:1],,,,
{2}4,
{8}1-4[8:1]/7-4[8:1],,,,,
{8}35,17,28,4-1[8:1]/6-1[8:1],5,,,
{8}2>5[8:1],,6<1[8:1],,6,2h[8:2],,,,
{8}68,7<4[8:1],1-5[8:1],7-3[8:1],1,7,,,
{8}13,2>5[8:1],8-4[8:1],2,8,
{8}1,1/5-1[8:1],,5,2,3,4-8[8:1],,4,,
{8}6>3[8:1],,2<7[8:1],,2,6h[8:2],,,,
{8}13,2>5[8:1],8p4[8:1],2p6[8:1],8,2,,,
{8}68,7<4[8:1],1q5[8:1],7,1,
{8}8,8/4p8[8:1],,4,7,6,5-1[8:1],,5,,
{8}2-5[8:1]/8-5[8:1],,28,,4-1[8:1]/6-1[8:1],46,,,,
{8}2-7[8:1],6-3[8:1],2-5[8:1],6-1[8:1],2,6,,,
{8}2>5[8:1],5<8[8:1],8>3[8:1],,,
{8}5,5-1[8:1],,5,2,3,4-8[8:1],,4,,
{8}1-4[8:1]/7-4[8:1],,17,,3-8[8:1]/5-8[8:1],35,,,,
{8}1v4[8:1],5v8[8:1],1-3[8:1],5-7[8:1],1,5,,,
{8}8<5[8:1],5>2[8:1],2<7[8:1],,,
{8}4,4p8[8:1],,4,7,6,5q1[8:1]*p1[8:1],,5,,
{8}28,37,
{16}4,6,5,,3,7,2,6,3,7,2,,
{16}8,1,8,2,8,1,7,1,8,1,8,2,8,1,7,1,
{8}8,17,
{16}2,8,1,,8,7,1,2,6,5,3,,
{16}3,4,3,5,3,4,3,6,3,4,3,7,3,4,3,8,
{8}3>3[8:4],8h[8:5],,,,,
{1},,,
E
