&title=絶体絶命
&artist=Cö shu Nie
&first=0.06
&des=STEXxx
&lv_5=14
&inote_5=(143){4},3h[4:3]/7h[8:7],{16},,,,,,,,,,,,4x,
6x,3x,5x,2x,6x,3x,5xh[8:1],,4x,7x,3x,
8x,1x,1x,1x,{8}1bx,{16}3,3,,4/8h[8:1],,2,7,3,6,4,
5,3,{8}6h[8:1],1,{16}7,7,3,6,{8}2h[8:1],{16}5,1,6,8,
7,5h[16:3],,,{8}1bx,{16}3,3,,5/1h[8:1],,7,2,6,3,5,
4,6,{8}2,{12}8/2,,7/3,,5/4,,{4}1/6h[16:3],
5/3>6[8:7],{16}5,,,4,,,{8}4,{16}4,,,5,
,,{8}5,{4}5h[4:1],{16},,3,4,3>2<1<8<7<6[8:7],,,4,
,,{8}5,{16}5,,,4,,,{8}4,{4}4h[4:1],
{8},4/6h[16:5],{16},,,1,,,1,8,2,,,6/2,
,3,3,5,4>8[4:1],,,6,,,{8}7,{16}7,,,6/1,
,,{8}3,{16}3/8<4[4:1],,,1,,,{8}2,{16}2,,,5/2,
,,{8}2/4qq5[8:3],{16}2,,,8,,,{8}6,{16}6,,,8/4,
,,{8}2/8,1/7,7,6,5,4,3,
6/2,1/5,{4}4q8[8:1]/8q4[8:1],,7-4[8:1]/3-8[8:1],
,5pp8[8:3]/1v4[8:1],,3,
2,{8}6/1,{16}4,5,3,6,2,7,1,8,3,8,
4,7,5,6,{4}5-2[8:1],5/1-6[8:1],1>5[8:1],
7/1,{16}7>5[8:3],,,4,,,{8}5<1[16:5]*<1[16:5],{16}8,,,1>5[4:1],
,,{8}2,{16}5>7[8:3],,,8,,,{8}7<8[8:3]*p3[16:3],{4}5,
,4qq1[8:3]*q8[8:1],{8},,8,7,
6-2[8:1],5,{4}6/4-8[8:1],4/7-3[8:1],7/1h[4:1],
{16}4,2,5,3,{4}6qq3[8:3],{8},1<3[4:1],,1p5[8:1],
,1>6[4:1],,1/6<3[4:1]*<3[4:1],,3qq8[8:3],,6,
{4}6,{16}7<5[8:1],,,8p4[12:1],{8}7,8,{16}1q5[8:1],,,2>4[12:1],
{8}1,2,{16}6<4[4:1]*<4[4:1],,,4,{2}4w8[8:1],
{16},,2,6,{8}1h[16:3],5h[16:1],{16}1x,2x,3x,4x,5x/1x,,,3,
,,{8}2/6,{16}5h[16:3],,,1,,,{8}8/4,{4}7h[8:3],
,5qq6[2:1],6,{16}8,,,1,
,,{8}2,{16}2h[16:3],,,4,,,{8}3h[4:1],,2h[4:1],
{16},,8,1,7,,,8,3,7,4,6,5<1[4:1],,,3,
,,{8}2,{16}2,,,8/3,,,{8}1,{16}1>5[4:1],,,7,
,,{8}6,{16}6,,,4/7,,,{8}7/5qq4[8:3],{4}7h[4:1],
{8},6,{4}5h[4:1],{8},7/1,{4}2/8h[4:1],
{16},,4,5,{8}4,3/6,2/7,1/8,{4}1-4[8:1]/8v5[8:1],
,6-2[8:1]/3-5[8:1],,5qq2[8:3]/1v6[8:1],
,7,8,{8}3/8,{16}6,5,
7,4,8,3,1,2,4,1,5,8,6,1,{4}7-4[12:1],
7/3-8[12:1],{8}3/5V71[12:1],{16}2x,3x,{4}4x,{16}7V13-5[8:3],,,4,
,,{8}5>8[16:5]*>8[16:5],{16}1,,,8<4[4:1],,,{8}7,{16}4V68-2[8:3],,,1,
,,{8}2>1[8:3]*V46[16:3],{4}4,,4qq1[8:3]*q8[8:1],
{8},,8,7,6-3[8:1],5,{4}6/4-8[8:1],
4/7<3[8:1],7/1h[4:1],{16}4,3,5,4,{4}6qq3[8:3],
{8},1<3[4:1],,1p5[8:1],,1>6[4:1],,1/6<3[4:1]*<3[4:1],
,3qq8[8:3],,6,{4}6,{16}7<5[8:1],,,8p4[12:1],
{8}7,8,{16}1q5[8:1],,,2>4[12:1],{8}1,2,{16}6<4[4:1]*<4[4:1],,,4,
{2}4w8[8:1],6<2[8:7]/2p4[8:7],
{16},,,,,,,,,,,,3/5h[16:3],{32},,,,4x,3x,
2x,1x,8x,7x,6x,5x,4x,3x,{4}2x/5h[4:1],4,5/2h[4:1],
3,5/4h[4:1],7,6h[16:3],
{16}4,6,4,6,{4}4h[2:1],8,7h[2:1],
,5,2,3h[4:1],
5,{8}4h[2:1],6,7,7h[8:3],,1,
2,2h[4:1],{16},,1,3,{8}8,7,7/3,6/2,
5/1,4/8h[8:1],7h[8:1],{16}5,6,{8}4,{16}3,4,1,6,{8}5h[8:1],
7h[8:1],1,{16}2,1,3,8,4,7,5,6,4,5,3,4,
2,8,1,7,5,6,4,5,3,6,2,7,1,8,1,7,
1,6,1,5,{8}1-4[8:1],8,{16}1/6,6,7,7,5,5,3,3,
{4}1bh[4:1],5-2[8:1],1-4[8:1],8-3[8:1],
4-1[8:1],5<1[4:1],1>5[4:1],5<8[4:1],
8,3-8[8:1],7-2[8:1],1-6[8:1],
7-2[8:1],3<7[4:1],7>3[4:1],3q8[4:1],
8,5-2[8:1],1-4[8:1],8-3[8:1],
4-1[8:1],5<1[4:1],1>5[4:1],5<8[4:1],
8,3-8[8:1],7-2[8:1],7-4[8:1],
7-3[8:1],7/1>7b[4:1],{8},,8-3[8:1],1,
{1}2/8bpp8[4:9]*qq5[4:9],
{8},,,,,,,,,,,,,8qq5[8:3],
,4,
{4}4v1[8:1],4bq8[8:1]*<7[8:1],4>8[8:1],{8}4/7,6,
{16}3,5,3,5,{4}3pp6[8:3],{8},8>6[4:1],,8p4[8:1],
,8x<3[4:1],,8/3>6[4:1]*>6[4:1],,6pp1[8:3],,3,
{4}3,{16}2>4[8:1],,,1q5[12:1],{8}2,1,{16}8p4[8:1],,,7<5[12:1],
{8}8,7,{16}3>1V75[4:1]*>5[4:1],,,5,{2}5w1[8:1],
{4}7qq4[2:1],{16}7/5,,,3,,,{8}1,{16}7h[16:3],,,5h[16:3],
,,{8}3,{16}1h[16:3],,,2h[16:3],,,{8}4,{16}3,5,3,5,
2,6h[8:1],,1,{8}1,2x,3x,{16}6,4,6,4,7,3,
8,2,{8}7,6x,{16}5x,4,5,3,5,4,{8}4bv1[8:1],{16}6,6,
,8,,2,2,6,3,7,4,4,{8}6h[8:1],{16}4,5,3,6,
2,7,{8}3v6[8:1],1,{16}3,8,8,5,4,7,{8}6bv1[8:1],{16}5,5,
,2,,3,3,8,2,7,3,3,{8}5h[8:1],{16}4,6,3,7,
2,8,{8}3v6[8:1],1,{16}3,8,8,5,4,7,{8}5bpp4[4:1],{16}3,3,
,2,,3,3,5,6,7,4,3,{8}2h[8:1],{16}1,3,8,2,
7pp6[4:1],1,{8}7,4,{16}5,4,3-5[8:1],5,6,7,{8}3/8-2[8:1],{16}8,8,
,6,{8}6,{16}4,4,,2,2-5[8:1],1,8,7,{4}2b/6-1[8:1]*-2[8:1],
6b-3[8:1],6b/8>7[4:1],{2}8b/5h[16:5],
E
