&title=INFINITE SKY
&artist=KOTOKO
&first=0
&des=風が歌い、雲が奏で
&lv_5=14
&inote_5=(190)
{4}
,,,,
{8}
,,,,,,,,
{8}
4,6,5,4,3,,5,,
{8}
7-2[4:1],,3,3-6[4:1],,,,,
{8}
8h[8:3],,,7,,,,,
{8}
1/2h[4:2],,,,3>4[4:3],,,,
{8}
6h[4:2],,,,,,4,,
{8}
3,3qq7[8:6],,2h[8:3],,,,,
{8}
3<6[8:3],,,1,1,,,,
{8}
6>2[16:7],,,8,8,,,,
{8}
2>8[2:1],,,1,1,,,,
{8}
C,,12,38,47,6-1[8:1]/5-2[8:1],,6b<5[4:3]/5b,
{8}
,,,,,,,,
{8}
2h[4:1],,6,,8h[4:1],,4,,
{8}
6pp4[4:3],,3,,2,,1,,
{8}
8>5[8:4],,5,,6,,7,,
{8}
81,,2,3,4h[4:1],,5,,
{8}
7,,2,3,4h[4:1],,5,,
{8}
8qq1[8:3],,2,3,4h[4:1],,2,,
{8}
1<6[4:1],,2,3,4h[4:1],,5,,
{8}
64,73,82,,,,5,5<8[4:1],
{8}
,,3,3>8[4:1],,,4,4-8[4:1],
{8}
,,2,3,4h[4:1],,7,,
{8}
46,3,3,
{16}5,5,4,3,2,1,8,7,6,5,
{8}
4b,,78,1,25,6,78,,
{8}
2/5>2[8:1],6,7,8<5[8:1],1,2,3,,
{8}
37,,21,8,74,3,21,,
{8}
7/4<7[8:1],3,2,1>4[8:1],8,7,6,,
{8}
26,,78,1,34,6,78,,
{8}
3/4-1[8:1],5,6,7-4[8:1],8,1,2w6[8:1],,
{8}
2,,,,5,,3,3,
{8}
7qq1[8:3],,4,,2-6[8:1]*-4[8:1],,,,
{16}
1,8,
{8}1,7b/2b,,7h[4:1],5,3,1/2<7[6:1],
{8}
,,6,5>2[8:1],,5/8-4[8:1],,81,
{8}
,,52,6,4,73,2,5,
{8}
6-1[8:1]/8-4[8:1],,68,,3<6[8:1],2,3>6[16:3],,
{16}
,,
{8},1b,,2h[4:1],4,6,8/7>2[6:1],
{8}
,,3,4<7[8:1],,4/1>4[8:1],,18,
{8}
,,47,3,5,26,7,4,
{8}
3-8[8:1]/5-8[8:1],,35,,7<4[8:1]/1>4[8:1],,71,,
{8}
3h[4:1],5,6,7h[4:1],5,4,83,,
{8}
3h[4:1],5,6,7h[4:1],5,3,28,,
{8}
2h[4:1],4,6,7h[4:1],5,3,81,,
{8}
2>5[8:1],,26,1<6[8:1],,15,3,1,
{8}
7b/3,4,5,2b/6,5,4,8b/2,4,
{8}
5,1b/7,5,4,{16}8b/2,3,4,5,6,7,8,1,
{16}
6b/2b,,3,4,3,,18,,4,5,4,,87,,56,,
{8}
4,31,28,17,6-2[8:1],8,6x`Cf,,
{8}
8b>6[4:1],4,8,,8-4[8:1],8,2-5[8:1],,
{8}
5V38[4:1]/2b,,7-3[8:1],7,,,1,5,
{8}
3b<6[8:1],3,8-4[8:1],8,1-5[8:1],1,7>2[8:1],,
{8}
3/7b,,5w1[8:1],5,,,3,
{16}8,7,
{8}
2-5[8:1]/6,,2/6-1[8:1],,6/3-8[8:1],,3/7,,
{8}
1>4[8:1]/6<1[8:1],,16,,8-5[8:1]/2-5[8:1],,82,,
{8}
6/2-6[8:1],,8-4[8:1],,8b/4>5[4:1],,,,
{16}
1x,,1x,,26,,3,5,4-7[8:1],,8,,4,,,,
{8}
1b<3[4:1],5,1,2,1-5[8:1],1,7-4[8:1],,
{8}
4V61[4:1]/7b,,2-6[8:1],2,,,8,4,
{8}
2b-7[8:1]/6b-3[8:1],,26,,5>2[8:1]*<8[8:1],,5,,
{8}
1b/2x,3b/4x,5b/6x,7b/8xw4[8:1],,,,,
{16}
2b,,6,5,6,,8b,,6,5,6,,2b/8b,,,,
{16}
17,2,3,4,6,7,8,1,5-1[8:1],4,3,2,1,,,,
{16}
7b,,3,4,3,,1b,,3,4,3,,7b/1b,,,,
{16}
82,7,6,5,3,2,1,8,4-8[8:1],5,6,7,8,,,,
{16}
2b,6,3,5,4,6,2b,7,3,5,4,6,2b,8,4,6,
{16}
5,7,2b,1,4,6,5,7,
{32}2b,3,4,5,6,7,8,1,
{16}2b/6,,,,
{24}
1b,2,3,4,5,6,8x,7x,6x,5,4,3,1x,8,7,6,5,4,2x-6[8:1],1x,8x,7x,6x,5x,
{8}
2b/4xw8[8:3]`Cf,,,,,,,,
{8}
{24}
6pp4[4:5]`E2,E3,E4,
{8}
E5,,2,2h[4:4],,,,
{8}
,,,,,,,,
{8}
3>8[8:3],,5,5h[4:1],,,,,
{8}
2>5[8:3]/6<1[8:3],,,,,,,,
{8}
5,3,4,5,6,,4,,
{8}
2-7[4:1],,6,6-3[4:1],,,,,
{8}
2>6[16:7],,,1,1,,,,
{8}
7<1[2:1],,,8,8,,,,
{8}
C,,87,16,25,3>8[8:1]/4<7[8:1],,3bqq7[8:15]/4bq6[8:15],
{8}
,,,,,,,,
