&title=サラマンドラの踊り子
&artist=清风明月
&first=0.39
&des=SPTXzx
&des_4=
&des_5=SPTXzx
&des_6=
&des_7=
&lv_5=13+
&inote_5=(127){4},{16},,,,,,,,,,,,5x<8[4:1],
,,5,,,{8}2x,{16}1h[16:3],,,2h[16:3],,,{8}3,
{16}4x>1[4:1],,,4,,,{8}7x,{16}8h[16:3],,,7h[16:3],,,{8}6,
{4}5-8[8:1],5/3-1[8:1],{16}3/5x,,,4/6>7[16:7],,,{8}3x,
{4}C,4,{8}4,5,{4}6/3,
{8}6/2h[8:1],{16}5,3,{8}7,6/4,7/3h[8:1],{16}6,4,{8}8,5/2,
3/6h[8:1],{16}4,5,{8}3,2/6,3/7h[8:1],{16}1,6,{8}3,4/5,
7/3h[8:1],5,2/6h[8:1],4,7/3h[8:1],{16}5,2,{8}7,3/5,
{16}7/4,,,5/2,,,{8}6/3,{12}7-4[8:1]/2-5[8:1],7x/2x,7x/2x,7x/2x,{24},,,,{8}2/6x-1[8:1],
5,3,4,{16}4>1[8:1],,,6,{8}4,5,
{16}4<7[8:1],,,2,{8}4,3,3-8[8:1],5,6,{16}7x,6x,
5x/3-8[8:1],,,4,{8}3,5,5<8[8:1],3,{4}5,
{16}6/5>2[8:1],,,7,{8}5,6,6-1[8:1],4,3,2,
3>8[8:1],5,3,4,{16}5<8[8:1],,,3,{8}5,4,
{16}4>1[8:1],,,6,{8}4,5,6-1[8:1],4,3,{16}2x,3x,
4x/6-1[8:1],,,5,{8}6,4,4>1[16:1],{16}6,4x,,,{8}5,
7/3,4,6/2,{16}5,6/3,,2,4,3,5,4,{8}6,
7/3x-8[8:1],6,5,6,5<8[8:1],3,2,3,
4>1[8:1],7,6,5,6-1[8:1],3,{4}4-8[8:1],
4/6-2[8:1],6/3-8[8:1],{8}3/5-1[8:1],6,5/3>8[8:1],2,
3/5,6,7x<4[8:1],{16}6x,3x,{8}7x,2,{16}1x,5x,2x,6x,
{8}3x-8[8:1],6,5,6,5<8[8:1],3,2,3,
4>1[8:1],7,6,5,6-1[8:1],4,3,{16}2,3,
{8}7x/4>1[8:1],6,4/5-8[8:1],6,{16}5/3-8[8:1],,,4,{8}3,6,
7h[16:3],5,2,{16}7x/3,6x,1bx/5x,2x,3x,4x,5bx/1x,6x,7x,8x,
6x/1x-6[8:1],7x/2x,{8}8x/3x,3/1xpp4[8:3],2,5-7[8:1],6,{4}5bx,
{16}3x/8x-3[8:1],2x/7x,{8}1x/6x,6/8xqq5[8:3],7,4-2[8:1],3,{4}4bx,
{16}6x/1xv6[8:1],2x/7x,{8}3x/8x,3/1bx>4[6:1],2,1/7-4[8:1],8,7/3bx>8[6:1],2,
{16}3/7x-2[8:1],6x,{8}5x,7/5<8[8:1],6,5/4-8[8:1]*-2[8:1],3,{4}4bx,
{8}2/7-4[8:1],3/5,7/1pp4[8:3],2,5-7[8:1],6,{4}5bx,
{8}6/3q5[4:1],4,3/5<3[16:3],6x,{4}Cf,{8}6<1[8:1],7,
6bx/3-8[8:1],4,{16}3/7>2[8:1],6,{8}5,7bx/4-1[8:1],5,{16}8/4,7,{8}6,
2/5,3,4/7,{16}2,3bx/6bx,,,{8}4,4/5<8[8:1],6,
5bx/3-8[8:1],4,{16}3/7>2[8:1],6,{8}5,7bx/4-1[8:1],5,{16}8/4,7,{8}6,
2xh[8:3],4,7,5,{16}1x,3,2,7x,5,6,2x,4,
{12}1x,5x,3x,8x,4x,6x,{2}2b/Cf,
{8}6/2h[8:1],{16}5,3,{8}7,6/4,7/3h[8:1],{16}6,4,{8}8,5/2,
3/6h[8:1],{16}4,5,{8}3,2/6,3/7h[8:1],{16}1,6,{8}3,4/5,
7/3h[8:1],5,2/6h[8:1],4,7/3h[8:1],{16}5,2,{8}7,3/5,
7/4,6x,2/5,3x,8/5,6x/3x,1/4,3x/6x,
3/7h[8:1],{16}4,6,{8}2,3/5,2/6h[8:1],{16}3,5,{8}1,4/7,
6/3h[8:1],{16}5,4,{8}6,7/3,6/2h[8:1],{16}8,3,{8}6,5/4,
2/6h[8:1],4,7/3h[8:1],5,2/6h[8:1],{16}4,7,{8}2,6/4,
{16}2/5,,,4/7,,,{8}3/6,{12}2-5[8:1]/7-4[8:1],2x/7x,2x/7x,2x/7x,{24},,,,{8}7/3x-8[8:1],
4,6,5,{16}5<8[8:1],,,3,{8}5,4,
{16}5>2[8:1],,,7,{8}5,6,6-1[8:1],4,3,{16}2x,3x,
4x/6-1[8:1],,,5,{8}6,4,4>1[8:1],6,{4}4,
{16}3/4<7[8:1],,,2,{8}4,3,3-8[8:1],5,6,7,
6<1[8:1],4,6,5,{16}4>1[8:1],,,6,{8}4,5,
{16}5<8[8:1],,,3,{8}5,4,3-8[8:1],5,6,{16}7x,6x,
5x/3-8[8:1],,,4,{8}3,5,5<8[16:1],{16}3,5x,,,{8}4,
2/6,5,3/7,{16}4,3/6,,7,5,6,4,5,{8}3,
2/6x-1[8:1],3,4,3,4>1[8:1],6,7,6,
5<8[8:1],2,3,4,3-8[8:1],6,{4}5-1[8:1],
5/3-7[8:1],3/6-1[8:1],{8}6/4-8[8:1],3,4/6<1[8:1],7,
6/4,3,2x>5[8:1],{16}3x,6x,{8}2x,7,{16}8x,4x,7x,3x,
{8}6x-1[8:1],3,4,3,4>1[8:1],6,7,6,
5<8[8:1],2,3,4,3-8[8:1],5,6,{16}7x,6x,
{8}2x/5<8[8:1],3,5/4-1[8:1],3,{16}4/6-1[8:1],,,5,{8}6,3,
2h[16:3],4,7,{16}2x/6,3x,8bx/4x,7x,6x,5x,4bx/8x,3x,2x,1x,
3x/8x-3[8:1],2x/7x,{8}1x/6x,6/8xqq5[8:3],7,4-2[8:1],3,{4}4bx,
{16}6x/1x-6[8:1],7x/2x,{8}8x/3x,3/1xpp4[8:3],2,5-7[8:1],6,{4}5bx,
{16}3x/8xv3[8:1],7x/2x,{8}6x/1x,6/8bx<5[6:1],7,8/2-5[8:1],1,2/6bx<1[6:1],7,
{16}6/2x-7[8:1],3x,{8}4x,2/4>1[8:1],3x,4/5-1[8:1]*-7[8:1],6,{4}5bx,
{8}7/2-5[8:1],6/4,2/8qq5[8:3],7,4-2[8:1],3,{4}4bx,
{8}3/6p4[4:1],5,6/4>6[16:3],3x,{4}Cf,{8}3>8[8:1],2,
3bx/6-1[8:1],5,{16}6/2<7[8:1],3,{8}4,2bx/5-8[8:1],4,{16}1/5,2,{8}3,
7/4,6,5/2,{16}7,6bx/3bx,,,{8}5,5/4>1[8:1],3,
4bx/6-1[8:1],5,{16}6/2<7[8:1],3,{8}4,2bx/5-8[8:1],4,{16}1/5,2,{8}3,
7xh[8:3],5,2,4,{16}8x,6,7,2x,4,3,7x,5,
{12}8x,4x,6x,1x,5x,3x,{2}7b/Cf,
{16}7h[8:1]/5h[8:1],,,6h[8:1]/4h[8:1],{48},,,,,,{24}5/3,2x,1x,{12}8x/4x,1x/5x,6x/2x,7x/3x,6x/2x,5x/1x,
{16}8xh[8:1]/4xh[8:1],,,6h[8:1]/2h[8:1],,,{8}7/3,{16}3,6,2,5,3,6,4,7,
8h[8:1]/5h[8:1],,,6h[8:1]/3h[8:1],,,{8}4/1,{16}5,2,6,4,7,3,5,4,
8xh[32:3],6,{24}7,1x,{48},3,,,{24}2,{96},{32}5xh[32:5],,,,,{16}3,4,1,6,4,5,2,4,
3b,5,1,6b,4,8,{8}2h[8:1],{16}5,3x,,6xh[16:1]/4xh[16:1],,5x/3x,{8}5x/3x,
{16}7b,4,6,2b,5,3,{8}7h[8:1],{16}2,4,3,5,4,6,5,7,
{8}2bh[8:1],{16}6,4,5,3,{8}7h[8:1],{16}4,6x,,3xh[16:1]/5xh[16:1],,4x/6x,{8}4x/6x,
{16}2b,4,3,7b,5,6,3,4,{24}1b,8,1,8,1,8,1,8,1,8,1,8,
{8}1>4[8:1],{16}6,6,,7x,,8x,{8}8x-5[8:1],7x,8x/3s7[4:1],2,
3xh[4:1],,,3,{16}7,5,6,4,5,3,4,2,
{8}8<5[8:1],{16}3,3,{8}8x,2,1>4[8:1],{16}6,6,{8}1x,7,
{16}8,5,7,4,6,3,5,2,8,1,5,3,8,1,6,4,
{8}8<5[8:1],{16}3,3,,2x,,1x,{8}1x-4[8:1],2x,1x/6z2[4:1],7,
6xh[4:1],,,6,{16}2,4,3,5,4,6,5,7,
{8}1>4[8:1],{16}6,6,{8}1x,7,8<5[8:1],{16}3,3,{8}8x,2,
{16}1,4,2,5,3,6,4,7,1,8,4,6,1,8,3,5,
,3,4,5,3,4,5,6,{12}7x/2x,7x/2x,7x/2x,7x/2x,,,{2}4/6bh[4:1],
3/5bh[4:1],
6/4bh[4:1],5/3bh[4:1],
{8}7h[4:1]/5h[16:3],,,C,2h[4:1]/4h[16:3],,,C,
{16}7h[16:3],,,5h[16:3],,,{8}4<7[8:1],3x,4x,{4}2b,
{8}5/3-8[8:1],2,{4}5/3,{8}6/1-4[8:1],2,{4}6/1,
{8}3/8-5[8:1],7,{4}8/3>6b[4:1],3/5x-1[8:1],5,
{8}4x/3x-1b[8:1],2x,{4}3x/4x,{8}5x/6x-8b[8:1],7x,{4}6x/5x,
{16}6x/5x,,,4x/3x,,,{8}5x/4x,{16}3x,6x,2x,7x,{4}8x/1x,
{16}6/1-6[8:1],7/2,{8}8/3,1/4qq8[8:3],3,4/5-7[8:1],6,{4}5,
{16}3/8-3[8:1],2/7,{8}1/6,8/5pp1[8:3],6,5/4-2[8:1],3,{4}4,
{16}6/1-6[8:1],7/2,{8}8/3,1/3V52[6:1],2,7-4[8:1],8,7/3>1b[8:1],2,
{16}8/3,7,{8}6,{16}1/6pp1b[3:1],7/2pp5b[48:13],{8}3/8,{4}6/2,Cf,
{8}2V41[16:3]/8-6[48:5],3/7,{4}8pp3[8:3],{8}5-7[8:1],6,{4}5,
{8}7/1-6b[8:1],2/6-2b[8:1],{4}7,{32}8,7,6,5,4,3,2,1,{4}8/Cf,
{8}7/1,5/3,{16}2b,4,{8}3/5x,2/8,4/6,{16}7b,5,{8}6/4x,
{16}2,4,3,7,5,6,3,7b/2b,,,{8}5b/4b,6b/3b,8b/1b,
5/4,2/8,{16}3b,4,{8}1,4/5,7/1,{16}6b,5,{8}8,
{16}1,4,3,6,5,7,2,4,3b,5,1,6b,4,8,{8}3b,
{12}6/4,6/4,6/4,3/5,3/5,3/5,{4}8bv5b[8:1]/1bv4b[8:1],{48}8b/1b,Cf,,,,,,,,,,,{8}6/2h[8:1],
{16}5,3,{8}7,6/4,7/3h[8:1],{16}6,4,{8}8,5/2,
3/6h[8:1],{16}4,5,{8}3,2/6,3/7h[8:1],{16}1,6,{8}3-8[8:1],4/5,
3/7-2[8:1],5,3/7,5,7/3h[8:1],{16}5,2,{8}7,3/5,
{16}1,7,2,6,3,5,1,8,4,6,1,8,3,5,{8}1,
3/7h[8:1],{16}4,6,{8}2,3/5,2/6h[8:1],{16}3,5,{8}1,4/7,
6/3h[8:1],{16}5,4,{8}6,7/3,6/2h[8:1],{16}8,3,{8}6-1[8:1],5/4,
6/2-7[8:1],4,6/2,4,2/6h[8:1],{16}4,7,{8}2,6/4,
{16}2b/5b,,,4b/7b,,,{8}3b/6b,{12}7b-4[8:1]/2b-5[8:1],7b/2b,7b/2b,7b/2b,,,{1}Cf,
E
