&title=See You Move
&artist=Lusumi
&first=0.62
&des=!?木木?!
&lv_5=14
&inote_5=(160)
{8}1b/8b,,7b/2b,,3b-7[8:1]/6b-2[8:1],,Cf,,
{16}8/1,,1,,8/2,,,,6/1,,1,,7,8,7,8,
7V53[4:1],,,,3V57[4:1],,,,E1,,,,E3,,,,
8/1,,8,,7/1,,,,7/5,,6,,5,6,5,6,
5V31[4:1],,,,1V35[4:1],,,,E7,,,,E1,,,,
8/1,,2,,2/1,,8,,7/1,,6,,4,5,4,5,
4V28[4:1],,6,,8V24[4:1],,6,,5h[8:1],,,,6,,7,,
8,3,8,3,7,2,7,2,6,1,6,1,5s1s5[4:2],8,5,8,
5x,,,,5x-3-7-1b[8:3],,,,,,,,,,,,
6/2,,2,,3/4,,5,,6/4,,3,,7,7,7h[8:2],,
8>3[8:1],,,,8,6,,6,4,,6/5,,3,,4,,
1/5,,5,,6/4,,3,,1/2,,8,,4,4,4h[8:2],,
5<8[8:1],,,,5,3,,3,1,2,1,,7,8,7,,
7/3,,3,,1/2,,8,,7/1,,2,,6,6,6h[8:2],,
5>2[8:1],,,,5,7,,7,1,,7/8,,2,,1,,
8/4,,8,,7/1,,2,,3/4,,5,,6,4,5,,
4-6[8:1]/2-6[8:1],,,,4-1[8:1]/2,,,,7/4,,,,8x,8x,8x,8x,
8-4[8:1],,,6,6-2[8:1],,,3,3-8[8:1],,,,4,5,6,7,
2-5[8:1],,,7,7-3[8:1],,,4,4>1[8:1]*<7[8:1],,,,4x,,,,
8,1,7,,6/5-1[8:1],,,7,7-4[8:1],,,,3,2,1,8,
6-1[8:1],,,2,2h[4:1],,,,B7/E8,,E6/B5,,E4/B3,,E2/B1,,
6-2[8:1]/3,,,4,4-8[8:1],,,1,1-6[8:1],,,,2,3,4,5,
7-2[8:1],,,3,3-7[8:1],,,1,1<6[8:1]*>4[8:1],,,,1x,,,,
5,4,6,,1/2-6[8:1],,,8,8-3[8:1],,,4,4h[4:1],,,,
2,,1/3,,8/2,,7/1,,{24}6/8,5,4,3,2,1,8,7,6,5,4,3,
{16}2b-7V53v1[8:6],,,,,,,,,,,,,,,,
4,,,,4,5,,2,1,,,,8,1,,6,
5>1[4:1],,,,1<5[4:1],,,,5>1[4:1],,,,C,,,,
4,,,,4,3,,6,5,,,,8,7,,2,
1>4[4:1],,,,4<7[4:1],,,,7>2[4:1],,,,C,,,,
3,,,,3,4,,4,5,,,,6,7,,7,
8h[16:1],,8h[16:1],,1h[16:1]/7h[16:1],,1h[16:1]/7h[16:1],,6h[16:1]/2h[16:1],,6h[16:1]/2h[16:1],,5h[16:1]/3h[16:1],,5h[16:1]/3h[16:1],,
4xw8[16:2],,,,,,,,{32}E8f/B8/B1,B7/B2,B6/B3,E6/B5/B4,,,,,{16},,,,
6/4,,2,1,2,,8/3,,2/5,,7,8,7,,1/6,,
4/5,,3,4,2/5,,6,5,7/4,,6,,1bh[8:1]/5bh[8:1],,,,
2/8,,3,4,3,,5/2,,1/7,,6,5,6,,7/4,,
8,,1/7,6,5,,6/2,3,4b,,3b/5b,,6b/2b,,7b/1b,,
8pp3[8:10],,,,7<5b[8:1],,,,,,,,,,,,
{32},,,,,,5,6,7<4b[8:1],,,,,,,,{16},,,,,,2,,
1qq6[8:10],,,,2>4b[8:1],,,,,,,,,,,,
{32}1,,,,,,,,2>5b[8:1],,,,,,,,{16},,,,4x/8x,,,,
Ch[8:30],,,,E8,,,,E7,,,,E6,,,,
B5,,,,B6,,,,B7,,,,B8,,,,
E1,,,,E2,,,,E3,,,,E4,,,,
B4,,,,B3,,,,B2,,,,B1,,,,
B8/1x,,,,E8/2,,,,B7/3,,,,E7/4,,4,,
B6/4,,,,E7/5,,,,B7/6,,,,E8/5,,4,,
8/3,,2,,7/1,,6,,2/5,,4,,3/5,,6,,
7h[8:6]/4,,,5x,,,6x,,,8x,,,1x,,2,,
3/5,,,6/7,,,7/1,,,8/2,,,3-6-1<8-3[8:6]/4,,3/4,,
Ch[8:6],,,,,,,,,,,,,,,,
6/4,,,3/2,,,2/8,,,1/7,,,6q3>2q7<6[8:6]/5,,5/6,,
Ch[8:6],,,,,,,,,,,,,,,,
3x/5x,,,2/6,,,7,7,8x/6x,,,1/5,,,2,2,
1x/3x,,,8/4,,,5,5,4x/6x,,7/2,7x/2x,,8/1,8x/1x,,
7,2,7,2,6,3,6,3,5,4,5,4,5s1s5[8:4],5,5,5,
5,,,,5bx-3-7-1b[8:3],,,,,,,,,,,,
1xv6[8:6]*v4[8:6],,,,,,,,,,,,,,,,
,,7b,,2b,4b,,6b,1b,,8b,,5b,,2b,4b,
3bx/5bx,,,4,6b,,7/8,,1b-5[8:1],6,1,,7b<4[8:1],,7,,
7b/3b,,,1,1b,,2-6[8:1],,5b-8[8:1],,2,,5b,,,,
1b/2b,,,8,5b,,6/4,,3b-7[8:1],4,3,,6b<1[8:1],,6,,
6b/2b,,3h,3h,,8h,8h,,5h,5h,,7h,7h,5,6,4,
5b/3b,,,2,4b,,1/8,,7b-4[8:1],8,7,,2b-6b[8:1],,2,,
1bx-5b[8:1]/2bx-4b[8:1],,,,1bx<3b[16:3]/2bxp6b[8:1],,,,1bx/2bx,,,,B1f,B5f,E3f,E8f,
4bx,5bx,4bx,,6b/3b,,5,,2b-7[8:1],4,3,,2b/5b<8[8:1],,5,,
5b/1b,,4h,4h,,7h,7h,,2h,2h,,5h,5h/1b,,6/2,,
7b/3b,,,8,1b,,7/2,,6b-2[8:1],5,6,,6b/4b>1[8:1],,4,,
4b-7b[8:1],,,,4b/8-3[8:1],,8,,8b<5b[8:1],,,,8b/4,,3,,
4b/2b,,,1,6b,,7/8,,1b-5[8:1],8,2,,1b/7b<4[8:1],,7,,
7x/3x,,1h,1h,3,2h,2h,4,3h,3h,5,4h,4h,,6/2,,
8b,1b,8b,,7b/3b,,2b,5,4b,6,3b,,7b/4b,,8b/2b,,
7-4[16:1]/3-8[16:1],,,7b/3b,,,5,1,6,2,7,3,8,4,7,3,
2-5[16:1]/6-1[16:1],,,2b/6b,,,4,8,3,7,2,6,1,5,2,6,
7-4[16:1]/3-8[16:1],,,7b/3b,,,5,1,6,2,7,3,8,4,7,3,
{32}6bx/2bx,5,4,3,2,1,8,7,6,5,4,3,2,1,8,7,6,5,4,3,2,1,8,7,{24}E6,E5,E4,E3,E2,E1,E8,
