&title=はぐ (hug)
&artist=MIMI; MORE MORE JUMP!; 鏡音レン
&first=0.038
&des=Amia_QIEG
&lv_5=13+
&inote_5=(120.01)
{4},
{4}7qq4[1:1],E1,,,4qq1[1:1],E3,,,1qq6[1:1],E5,,,6>2V46[4:3]b,B1/B8/E1,,,
{8}8,{24}7,,8,6h[8:1],,,{8}4,7qq6[8:1],2,7x,,
{8}3/5,{24}4,,5,3h[4:3],,,1,,,{8}E8,B2,E6,,
{8}4,{24}2,,1,3h[8:1],,,{8}4,1/8V24[6:1],7,8x,,
{8}5,{24}7,,8,6h[8:1],,,5,,,{8}7/B4,7/B3,7bxh/B2,,
{8}8h[8:1],{24}1,,8,,,2x,E8,,2x,B7,,2x,E8,,2h[6:1]x,B7,,,,,,
{8}4/5,6,4/5,3,7-4[8:1]b,4>2-5<7[16:5],2/7,,
{8}1,{24}1,,2,,,6x,E2,,6x,B2,,6x,E2,,6h[6:1]x,B2,,,,,,
{8}2/8,3,1/7,5-1[8:1],1qq7[6:1]*pp3[6:1],5,B1,,
{8}1x-3[12:1],8x-6>5[8:1],,,2x-7[8:1],2xpp4[12:1],,,8x-6[12:1],5xqq4[8:1],,,5xpp5[4:1]*pp5[4:1],,5x,,
{8}4-2[12:1],1-7<5[6:1],,,2pp4[8:1],7-2[12:1],,,3<5[12:1],6>4[12:1],,,1p5[8:1],5p1-3<4[8:3],,,
{8}6,6,6,{16}5,6h[16:7],E3,,E4,,E5,,,,
{8}5/4,3,5/4,{16}6,3h[16:7],E6,,E7,,E8,,,,
{16}7-4[8:1],8,6,,7/1,,,,2V86[6:1],1,3,,2xqq3<4[4:1],,,,4xq5[4:1],,,,5x<4[2:1]b,,,,,
{16},,,4xqq3[6:1],,,,
{8}E7,,{16}8xqq7[6:1],,,,B2,,,,6x>3[8:5]*>3[8:5],,,,{16}D7,,B6,,C,,B3,,D3,,,,
{8}1-5[8:1],2,7-4[8:1]/1b/Cf,6,7/8p7[8:3],1,8,7<2[4:1],8h[8:1],,
{8}1-5[8:1],8,1/2-6-2[6:1],3,2/8w4[8:1]b,7,8b,,
{8}5/3,{24}1,,7,8-3[8:1],,,5-1[8:1],,,{8}8bx,{24}5bx,,,4bx-8[8:1]b,,,,,,
{8}2-6[8:1]/4,1,2/7<3[4:1],8,3<7[4:1]b,,7x-3[8:1],,
{24}A4,A3,A2,1x-5[8:1],,,A4,A5,A6,A1/7x-3[8:1],,,A4,A3,A2,1x-5[8:1],,,A4,A5,A6,A7/A1,,,
{8}8bx,6/4,1,4/5,7>2[8:1]/3p6[8:1],,3bx/7bx,,
{8}8/4,{24}2/6,,3,4-7[8:1],,,1-5[8:1],,,{8}4bx,{24}1bx,,,8bx-4[8:1]b,,,,,,
{8}2-5[8:1]/8,3,2/6<3[4:1],7,3>6[4:1]b,4,5,,
{8}A6/4h[8:1],{24}5,,4,,,6x,E4,,6x,E3,,6x,E2,,6h[6:1]x,E1,,,,,,
{8}8/1,2,8/1,7,3-8[8:1]b,8<6-1>3[16:5],3,,
{8}5,{24}5,,6,,,3x,A8,,3x,A7,,3x,A6,,3h[6:1]x,A5,,,,,,
{8}6/4,7,5/3,1-5[8:1],5qq4[6:1]*pp6[6:1],1,B5,,
{24}5x-3[8:1],,,6,,,A5,,,,,,4x-6[8:1],,,3,,,A4,,,,,,3-1[8:1],,,4,,,A3,,,,,,6V84[4:1],,,5,,,6,,,,,,
{24}3>8[2:1]*>8[2:1],,,,,,3,,,,,,8<5[4:1]*<5[4:1],,,,,,5>2[4:1]*>2[4:1],,,,,,2<6pp2[4:3]*<6pp2[4:3],,,{8},,,5,,5,5,
{8}5h[4:1],8,3h[4:1],1,6h[4:1],5,2h[8:1],4,6/5,7,3/4,1h[8:3],B4,B6,B2,B8,
{8}4h[4:1],6,5h[4:1],3,4h[4:1],2,5h[4:1],7,8>4[4:1],,4<8[4:1],,8>4[4:1],,4w8[8:1],,
{32}B4,B5/B3,B6/B2,E7/E2,,,,,
{8}2x/5x,{24}3,,4,3,,,21,,,4x/3x,,,71,,,65,,,3h[12:1],,,4x,,{24}1,8,,3,4,,4,5,,5,6x,,,
{24}8,,7,1h[8:1],,,6,,4,5h[8:1]x,,,3,,4,2h[8:1],,,8,,1,7x,,,5h/4h,,,4h/3h,,,3h/2h,,,2xh/1xh,,,1h/8h,,,7,,7,6,,6,5-1[16:1]b,,,4,,,
{24}5bx/C,,,3,,4,3h[8:1]x,,,1,,2,8h[8:1],,,5,,6,4h[8:1]x,,,5,,,28,,,3,,4,2xh,,1,3,,4,2,,1,3,,4,2xh,,,8<5[8:1],,1,7,,,
{24}4,3,2,1x,,4,3,,3,2,,2,1,,1,8x,,8,7,,7,6h[8:1],,,
{24}5h,4h,3h,2xh,8h,7h,6h,5h,,4h,,6h,3h,,,5h[8:1],,,4,,,1bv8-5[3:2]/8bv1-4[3:2],,,,,,
{4},,,
{4}2<7>2[2:1],,,,
{8}8-4[4:1],,4pp5[2:1],,,,,,
{8}1-5[4:1],,5qq4[8:3],,,7,6,5,
{8}4b/5b-8[1:1]*-8[1:1]b,,4,,3,,3,,2,,2,,1/8,,1/8,,
{8}8h[8:1]x/7h[8:1]x,,8h[8:1]x/7h[8:1]x,,7h[8:1]x/6h[8:1]x,,7h[8:1]x/6h[8:1]x,,
{8}5hb[8:1]/6bz2[2:1]*z2[2:1],,,,,5,
{8}A2/5bx-1[8:1]b,,4-2[8:1]/5b/Cf,3,4/8V64[4:1],7,8/4q7[4:1],3,2<7[8:1],,
{8}2>5[8:1],6,2<7[8:1],6,2>6[8:1]*q6[8:1],6,2b,,
{16}7x,8x,5x,4x,7x-3[8:1]b,8x,5x-1[8:1],4x,7b-4[8:1],,5b,,7b-1>2[8:1],,,,
{8}7-5>4[8:1],3,7V13[4:1],1,3V17[4:1]b,,7x-3[8:1]*-3[8:1],,
{24}4x,3x,2x,1x-5[8:1]*-5[8:1],,,4x,5x,6x,1x/7x-3[8:1]*-3[8:1],,,4x,3x,2x,1x-5[8:1]*-5[8:1],,,4x,5x,6x,7x/1x,,,
{8}8bx,6/4,1,4/5,7p2[8:1]/3<6[8:1],2/6,3bx/7bx,,
{16}1x,2x,5x,4x,1x-6[8:1]b,2x,5x-2[8:1],4x,1b-4[8:1]b,,5b,,1b-5[8:1],,,,
{8}8-4[8:1]/1,7,8/3V16[4:1],2,6V83[4:1]b,5,4,,
{24}5,,4,5,,,4,,5,4,,5x,4,,6x,4,,7x,4>8[4:1],,8x,4,,,8>4[4:1]b,,,5,,,4>8[4:1],,,7,,,8>4[4:1]b,,,5,,,7v4[8:1],,,,,,
{8}7v2[8:1],3,7-4[8:1],1,7/3V17[6:1],2,3/6-4[8:1],5,6/8-4[8:1],7-3[8:1],8-2[8:1],7-5[8:1],8qq3[4:1]b,7,8b,,
{24}5h[8:1]b,,,4x,5x,6x,7x,8x,1x,2h[8:1]x,,,1h[8:1]b,,,2x,1x,8x,7x,6x,5x,4h[8:1]x,,,
{24}5V71[4:1],,,2,,,1V75[4:1]b,,,4,,,5V71[4:1],,,2,,,4>1[8:1],,,,,,
{8}4,8V64[6:1],3>8[8:1],8,3<7[6:1]*q7[6:1],5,3,,
{8}8x-4[8:1]/2x-5[8:1]b,1/7,,,2xq7[8:1]/6xq3[8:1],8/4,2qq7>1pp4pp7[1:4],,6h[8:7]x,,,,,,,,4h[8:7]x,,,,,,,,2hx[1:2]b,
&inote_6=
