&title=キセキ結び
&artist=ホロライブ4期生
&first=0
&des=うすしお@やめるのやめろ!!!
&lv_5=13
&inote_5=(190){2},,,,,,,,,,4h[2:1]/6h[2:7],,E6,E5,E4,,2h[1:2],,
4h[1:1],,,,7h[2:1],5h[2:1],4h[2:1],2<4[4:13],,,,,,,,,
{8}3,3,5,5,2h[4:1],,6,6,4,4,7h[4:1],,2,2,8,8,
2-5[8:1],1,2,7-4[8:1],8,7,1,,12,12,38,38,4-8[8:1]/7,,,,
{4}6hx[1:2],,,,5,5,4,4,3h[1:2],2,2,2,1,1,8,8,
7h[1:1],6,5,4,3h[1:1],2,1,8,7>2[4:1],,3p6[4:1],,{8}5,5w1[8:1],,,{4},,
7h[2:1],5,2h[2:1],4,7<4[4:1],4>1[4:1],1<6[4:1],,
3h[2:1],1,6h[2:1],8,3<6[4:1],6<1[4:1],1>4[4:1],,
7h[4:1],5h[4:1],4h[4:1],2h[4:1],8h[4:1],6h[4:1],3h[4:1],1h[4:1],
{8}7<4[8:1],,,2v5[8:1],,6<3[8:5],,1x,{4},,,,
3hx[2:1]/4hx[2:1],,,{8},2,1,2,1,,{4}38,7,
6hx[2:1]/5hx[2:1],,,{8},7,8,7,8,,{4}61,2,
3>8[6:1],5,6<1[6:1],4,3>8[6:1],4,6<1[6:1],5,
3q5[2:1],{8},C,{4},,7x<4[6:1],,1x-7-5-3[3:1],,
,,5hx[2:1],,7hx[2:1],,8x-4[8:1],,
{8}2>5[8:1],,1,,7,7,,2>8[8:3],,,8>4[4:1],,4<8[4:1],,8>4q2[4:3],,
4x,,,Cf,,,,,,7,8,7,2-5[8:1],1,2,,
6x,,18,,6-1[8:1]*-2[8:1],,,,3x,,81,,3-8[8:1]*-7[8:1],,,,
6x,,18,,2,4,3,5-1[4:1],,,,,2-5[8:1],,28,,
6h[2:1],,7,,2h[2:1],,8,8-5[6:1],,,,,1-4[6:1],,,,
5p1[4:1]*q1[4:1],,,,,,,28,,46,,2v5[6:1]/8v5[6:1],,,,,
,,1-5[8:1]/2-5[8:1],,1/2<5[4:1],,,,,,8-4[8:1]/7-4[8:1],,8/7>4[4:1],,,,
,,1,,28,,7,6xv8[4:1],,,,2xv4[4:1],,,,,
5<8[4:1],,,,2>5[4:1],,,1,,1,,3,3,,24,,
1>4[4:1],,,,6<1[4:1],,,5,,5,,7,7,,68,,
1-4[8:1],,5-8[8:1],,3-6[8:1],,7-2[8:1],,4-1[8:1],,8-5[8:1],,2-7[8:1],,6,,
1x>3[8:1],8,7,6x<8[8:1],5,4,3q6[2:1],,{4},,,,2hx[2:3]/7hx[2:3],,,,,,,,
{8}46,,36,3,6,2,6,1,6h[4:3],,E8,,B6,,E5,,
3,,35,5,2,5,2,5,1h[2:1],,B2,,6h[2:1],,B5,,
1,,8,82,,71,,8/6q3[4:1],,3>7[8:3],,,,,,,
4>1[6:1],,6,,8<5[6:1],,2,,4>1[6:1],,6,,8,,12,,
45,,6,7p3[6:1]/8,,,,1-3<5[4:1],,5V72[8:3],,8,,,,,
6-1[8:1],,4,,2,2,1,8h[8:3]/3,,,B7,,5,5,6,6,
7>2[6:1],,,6q3[6:1],,,,1hx[8:3],,,8x,,45,45,36,,
25,3,47,6,25,1,8,2hx[8:9]/7hx[8:9],{2},,,,,,
4bhx[2:1]/6bhx[2:1],,3x/4x,5x/6x,2hx[2:1]/7hx[2:1],,3x/6x,4x-8[8:1]/5x-1[8:1],
{8}2x/7x,,3-8[8:1],3,7-4[8:1],,3>6[2:1],,,,,,,,18,,
7-2[4:1]/6q3[4:1],,,,,,,4hx[8:3]/5hx[8:3],,,,,27,,27,,
{32}1x,2x,3x,4x,5x,6x,7x,8x,{8}1bx-5[4:1],,,,,,6<1[6:1],,,,3p7[6:1],,,,
5-1[4:1],,,,,,,8x-4[8:1],,,,8x-6-4[4:1]*-2-4[4:1],,,,,
,,2-5[8:1],2,1-6[8:1],,2>5[8:1],,,,7-4[8:1],7,8-3[8:1],,7<4[8:1],,
,,1-4[8:1],1,6-3[8:1],,,2x-7[8:1],,,,5xv2[6:1]*v8[6:1],,,,,
1x/8x,,65,,43,,,1>4[4:1],,4<7[4:1],,8,8,,C,,
4x/5x,,21,,87,,,5<8[4:1],,8>3[4:1],,4,4,,C,,
7x/8x-3[8:1],,7-4[8:1],,2-5[8:1],,6-1[8:1],,3-8[8:1],,7-4[8:1],,5-2[8:1],,6,,
1x<7[8:1],2,3,4x>2[8:1],5,6,7x<2[2:1],8,{1}1x,
8b<1[4:13],5h[8:1],6h[8:1],{2}7h[8:1],8x,
{8}34,,35,,6,6,4,4,7-5[8:1],7,4-2[8:1],4,7>2[4:1],7,4x,,
4,,35,,3,3,5,5,,12,3,45,6,8x/7x,1x/6x,2x/5x,,,3b-6-1-4[2:9]/8,,E
