&title=NotToNotice();
&artist=削除 / 遠野ひかる
&first=-1.63
&des=JAZZANA
&lv_5=14
&inote_5=(140)
{1}
,,,
{32}
1b/8b,27,36,4>5[16:51]/5,,,,,
{4},,,,,,,,,,,,,Ch[4:1],,
{8}75,4V28[8:5],,6,B3/E3,,,,6,6,6/5-3[4:1],,,,
{8}6-8[4:1],5,3v6[4:2],,,,6-4[4:1],,,,7,7,7/4-2[4:1],,,,,
{8}7,6-4[4:1],2,3-6-4[8:3],,,,,,2,2,3-5[4:1]/4-6[4:1],,C,,,
{8}4v1[8:3],3-1-5[8:4],,,,,,,,8,8,82,,C/2-6[4:1],,,7>3[4:2],,1-5[4:1],,,,,,,
{8}42,24,24,,C,5xh[4:1],3xh[8:1],,6h[8:3],8,2h[4:1],,
{16}3,2,3,,2,4,3,5,3,3,4-8[8:1],,,,,,1-5[4:1],,,,5>1[4:2],,,,6-8[8:1],,,,6-4[16:1],
,,,,,,,,,4-6[4:1],,3h[4:1],,,,,,,,2-4[4:1],,,,C,,,,8qq8pp8[4:3],,,,,,,,,,,,,,,,
{16}A3,E4,A7,E8,A1,E2,A5,E6,Ch[16:1],,,,
{8}4,6,4-2[8:1],,5v4[4:1],,1v2[4:1],,1-7[8:1],,1-5[8:1],,C,,6-8[8:1],,3v6[4:1],,8-4[4:1],8qq1[2:1],,,,,,,3,3,3-1[8:1]/6-4[8:1],,36,,
{8}5,3,5-7[8:1],,4v5[4:1],,8v7[4:1],,8-2[8:1],,8-4[8:1],,C,,3z7[4:1],,7z3[4:1],,
{16},,,,5s1[16:6],,4z8[16:4],,,,,,,,,,
{8}7-2-7[4:1],2,7,,C,,
{8}4,6,4-1[8:1],,6v4[4:1],,8v2[4:1],,8-5[8:1],,8-4[8:1],,C,,6-4[8:1],,3-6[8:1],,7q2[8:5],8q2[2:1],,,,,,,6,6,6-3[8:1]/3-7[8:1],,36,,,
{8}3,5-8[8:1],,3v5[4:1],,1v7[4:1],,1-4[8:1],,1-5[8:1],,C,,2h[8:4],3h[8:2],,
{16},,5hx[8:2],,4hx[8:1],,,,,,
{24}3hx[16:1],,,5h[16:1],,,4hx[16:1],,,6h[16:1],,,2x,2x,,5,5,,4x,4x,,7,7,,3x,5,4,6x,4,5,2x,4,3,7x,5,6,1,3x,1,4x,1,5x,1,6x,1,7x,1,8x,
{32}1b-5b[16:1],2,3,4,5,6,7,8,,,,,,,,,
{48}4b/8b-4[8:1],3x,2x,1x,8x,7x,6x,5x,4x,3x,2x,1x,
{24}8x,,,,,,78,,,
{32}1x,2x,3x,4x,5x/7x,8,1,2,3,4,5,6,7/3b,,,,3,4,5,6,7,8,1,2,3x/4x,5,6,7,
{16}8x/Cf,,,,
{24}3x<6[16:1],1,2,6xqq8b[4:1],8,7,,,,,,,,,,,,,
{24}21,,,
{32}8x,7x,6x,5x,4x/2x,1,8,7,6,5,4,3,2/6b,,,,6,5,4,3,2,1,8,7,6x/5x,4,3,2,
{24}1x/Cf,,,,,,2x-6[16:1],4,3,7xV14-7b[4:1],5,6,,,,,,,,,,,,,
{24}87,,,2,1,2,
{32}8x,7x,6x,5x,
{24}3,4,3,2x/5x,
{24},,7,8,7,
{32}1x,2x,3x,4x,
{24}6,5,6,
{32}4h,,7h,,4h,,7h,,
{24}3xv8[16:1],,,7xqq4b[4:1],,,3b,,,,,,,,,,,,
{24}34,,,1x/3x,,,
{48}Cf/3x,4,5,6,,,,,,,,,
{24}65,,,8x/6x,,,
{48}Cf/6x,5,4,3,
{24},,,,3xh,1h,2h,6xh,8h,7h,
{32}1xh,2h,3h,4h,5h,6h,7h,8h,1b-6-3-7-4-1b[8:30]/Cf,,,,,,,,
{1},,,,
{4},,,7-3[16:1],
