&title=Black Princess
&artist=葉月ゆら
&first=0
&des=おにねこ
&lv_5=14
&inote_5=(154){1},
{16}
6pp1[4:2]/1,,2,,2,,3,,3b,,4,,4,,5,,7/5,,6,6,4,,5,,3b/6b-4[8:1],,2,,2,,1,,
8pp3[4:2]/3,,7,,7,,6,,6b,,5,,5,,4,,24,,3,3,5-8[8:1],,2,,5/1-6[8:1],,,,1/2,,,,
3qq8[4:2]/8,,7,,7,,6,,6b,,5,,5,,4,,1/4,,2,2,5,,4,,6b/3b-5[8:1],,7,,7,,8,,
1qq6[4:2]/6,,2,,2,,3,,3b,,4,,4,,5h[8:1],,8,2,7,3,8,2,6,4,7h[32:1],3h[32:1],6h[32:1],4h[32:1],8h[16:1],2h[16:1],6h[16:1],4h[16:1],{8}1bs5[8:4],,,,,,,,
{8}24,3,6/4-7[8:1],5,4/1h[8:3],,,8,57,6,5-2[8:1]/3,4,5/8-4[8:1],,8,,35,2,17,6,1-5[8:1]/5,,1v4[8:1]*v6[8:1],,1>4[8:1]*<6[8:1],,1q6[4:1],,
{16}7h[8:1],,,7h[8:1],,,7,,
{8}75,6,3/5v2[16:3],4,5/8h[8:3],,,1,42,3,4v7[16:3]/6,5,4/1-5[8:1],,1,,46,7,82,3,8v3[8:1]/4,,1>4[8:1]/8,,
{16}5,6,7,8,5,4,3,2,8-4[8:1],7,6,5,8b/4b,,,,
26,,3,4,2,4,1,4,2b-5[8:1],,,,28,,,,74,,6,5,7,5,8,5,7b-4[8:1],,,,73,,,,25,,1,4,2,4,3,4,2b-5[16:2],,,,2/6h[16:3],,,,
6,5,7,,6,5,8,,6,4,1,,7,3,1,,
{4}4/7-4[8:1],2-5[8:1]/7,7-1[8:1]*-3[8:1]/2,7-5[8:1],7/2-8[8:1],7-3[8:1]/2,1-4[8:1]*-6[8:1],1,
{8}35,35,24,13,24,35,46,57,
{16}8,1,7,2,6,3,5,4,6,5,7,4,8,3,1,2,
{12}8b,8,3,7,7,2,6,6,1,5,5,8,
{4}4-8[8:1],2-6[8:1]/4,8-4[8:1]/2,8,
{16}15,2,3,4,15,,15,8,7,6,51,,
{32}1,2,3,4,5,6,7,8,
{16}1b>4[8:1]/5bpp3[8:3],,,,,,,,,,1,,2,,8/3>8[8:1],,
8,8,3<6[8:1],,4,4,3,,7,7,8,6,3,3,4,2,
6-4[8:1],,7,,6v7[8:1]/2v1[8:1],,3,,6v4[16:2]/2v4[16:2],,,,6-1[16:2]/2,,,,6,,5,,4,,3,4,2V84[16:3],,3,8,2b,,,,
{16}7,,6-1[8:1],5,,5,6,,2,,3-8[8:1],4,,4,3,,
5-1[8:1],,,,65,,7,,8h[16:2]/2,3,4,,7h[16:2]/3,4,5,,
4>1[8:1]/6,,,6,4,,7,,8pp3[16:6],7,6,5,4,,,,
5,,,6h[16:3],,,4,,3,7,2,6,1,5,2,6,
{16}
7<4[8:1]/3qq6[8:3],,,,,,,,,,8,,7,,1/6<1[8:1],,
1,1,6>3[8:1],,5,5,6,,2,2,1,3,6,6,5,7,
1<6[8:1],,6,,1>4[8:1],,4,,5p1[8:1],,6,,57,,,,3<5[16:2],,5<7[16:2],,7>1[16:2],,1>3[16:2],,4,5,6,7,8-4[8:1],,,,
{16}8b,,,3,3,,62,,5/1-7[8:1]*-3[8:1],,,,1q5[16:2],,,,6h[16:6]
,,,,,,4,4,6,5,7,4,8,3,{32}7,6,5,4,{16}1b,,,5h[8:1]/2,,,36,,4/7h[8:1],,,3/6h[8:1],,,52,,
1b,5,2,5,3,5,2b,6,3,6,4,6,3b,7,4,7,5,7,2b,6,3,6,4V25[16:3],6,2,8,4b,,,,,,
7b,4,6,4,5,4,6b,3,5,3,4,3,7b,4,6,4,5,4,8b,5,7,5,6V84[16:3],5,8,3,6b,,,,,,
2b,5,3,4,2,2,7b,4,6,5,7,7,1b,4,2,4,1,1,7b,4,6,4,7-2[16:2],1,5,3,7b,,,,,,
7b,5,6,3,5,5,2b,4,3,6,4,4,6b,3,7,2,8-6[16:2]/1-6[16:2],,,,8-3[16:2]/1-3[16:2],,,,8-4[16:2]/1-5[16:2],,,,8b/1b,,,,
7,6,1h[16:1],6,5,1h[16:1],5,4,1h[16:1],4,3,1h[16:1],3,,3,,
2,4,3,4,2,4,1,4,
8,6,1,7,2,8,3,1,
2,8,2,7,2,6,2,5,
4,6,5,6,7,6,8,6,{12}1,4,3,8,5,6,{24}4,5,4,5,4,5,{32}4,3,2,1,8,7,6,5,{16}8b,,,,45,,6,5,
7h[8:1],,3,6h[8:1],,2,5h[8:1],,1h[8:1],,5,2h[8:1],,6,3h[16:3],,7,,
38,7,6,52,3,4,7/5h[16:3],,6,6,,3,24,,1h[16:3],,8,8,,6,57,,8h[8:1]/4,,3,3,,62,62,,1/5,,,,1b/5,2/6,3/7,48,
1,2,3,4,2,3,4,5,3,4,5,6,4,5,6,7,58,6,7,8,14,3,2,1,87,6,5,4,38,1,2,3,
8h[8:1]/4h[8:1],,,1h[8:1]/6h[8:1],,,34,,5h[8:1]/1h[8:1],,,3h[8:1]/8h[8:1],,,56,,
{24}1,8,1,8,1,8,1,8,1,{16}2qq8[8:1]/7pp1[8:1],36,45,,,,,,,,
2,3,4,5,8,8,2,2,4,5,6,7,2,2,4,4,8,1,2,3,{16}7,7,5,5,
6h[16:2]/4h[8:1],,,4h[8:1]/2h[8:1],,,68,,
{24}1,5,1,5,1,5,1,5,1,5,1,5,1,5,1,5,1,5,1,5,1,5,1,5,
1,2,3,8,7,6,2,3,4,7,6,5,2,3,4,1,2,3,7,6,5,8,7,6,
{16}5/1b,,,6h[8:1]/2,,,73,,8h[8:1]/5,,,7h[8:1]/4,,,63,,{4}1pp4[8:4]/8qq5[8:4],,,,
1V35[4:3],7,7,7,8v5[4:3],2,2,2,1V73[4:3],6,6,6,5V36[4:2],2,2,2h[4:1],
{8}7-5[16:2],,8,,1-7[8:1],,2,,3-1[8:1],,4,,5h[8:2],,1,{24}15,26,37,
{16}
8<5[16:2]/4,,,3,,,2,,1bqq6[8:3],2,3,4,5,,,,
4,,,3,,,2h[8:1],,{32}6,5,4,3,2,1,8,7,{16}6b/2b,,,,
3V17[16:3]/7qq4[8:3],,,,,,,,,,1,,2,,3-8[8:1]/8,,
7,7,3-7[8:1],,4,4,3,,6,6,5,8,2,2,1,4,
7-3[8:1],,1-4[8:1],,7-4[8:1],,1-6[8:1],,7>3[4:1],,,,,,,,5,,4,,63,,2,2,5V73[16:3],3,5,3-1[8:1],5b,,,,
{16}4-8[8:1],,,7,7,,6,,5-3[8
:1]*-8[8:1],,,,5-1[16:2],,,,2h[8:3]
,,,,,,8,8,2,1,3,8,2,1,{32}2,3,4,5,{16}1b,,,5h[8:1]/8,,,74,,6/3h[8:1],,,5/2h[8:1],,,41,,
{4}8-4[8:1]/3-1[8:1],8b/3b,1-5[8:1]/6-8[8:1],1b/6b,
{16}4h[8:1]/5h[8:1],,,3h[8:1]/6h[8:1],,,27,,{24}8bv5[8:7]/1b,72,63,54,,,{4},,,1-5[8:1],1b,
{8}
8-6[8:1],1,8-4[8:1],{16}2,2,{8}8-5[8:1],3,8-3[8:1],{16}2,2,{8}8-6[8:1],1-5[8:1],8-4[8:1],1-3[8:1],8-5[8:1],1-4[8:1],8,1,
8-6[8:1],1,8-4[8:1],{16}2,2,{8}8-5[8:1],3,8-3[8:1],{16}2,2,{8}8,1,2v5[8:1]/8v5[8:1],73,2b>5[8:1]/8b<5[8:1],,2b/8b,,
1>4[8:1],8,1-5[8:1],{16}7,7,{8}1>4[8:1],6,1-5[8:1],{16}7,7,{8}1>4[8:1],6-2[8:1],1-5[8:1],{16}6-8[8:1],,{8}1>4[8:1],6-2[8:1],1,6,
4-1[8:1],8-3[8:1],4-7[8:1],8-5[8:1],{8}4-1[8:1],8>3[8:1],4,{16}8,,
4,5,3,6,4,5,2,7,1h[32:1],8h[32:1],3h[32:1],6h[32:1],2h[16:1],7h[16:1],{32}1,2,3,4,{16}1h[8:1]/5h[8:1],,,2h[8:1]/4h[8:1],,,35,,4h[8:1]/6h[8:1],,,3h[8:1]/7h[8:1],,,28,,{12}1,1,6,2,2,7,3,3,8,4,4,1,{4}5-1[4:7],,,,,,,,
&inote_6=(154)
{1},
{16}
6pp1[4:2]/1,,2,,2,,3,,3b,,4,,4,,5,,7/5,,6,6,4,,5,,3b/6b-4[8:1],,2,,2,,1,,
8pp3[4:2]/3,,7,,7,,6,,6b,,5,,5,,4,,24,,3,3,5-8[8:1],,2,,5/1-6[8:1],,,,1/2,,,,
3qq8[4:2]/8,,7,,7,,6,,6b,,5,,5,,4,,1/4,,2,2,5,,4,,6b/3b-5[8:1],,7,,7,,8,,
1qq6[4:2]/6,,2,,2,,3,,3b,,4,,4,,5h[8:1],,8,2,7,3,8,2,6,4,7h[32:1],3h[32:1],6h[32:1],4h[32:1],8h[16:1],2h[16:1],6h[16:1],4h[16:1],{8}1bs5[8:4],,,,,,,,
{8}24,3,6/4-7[8:1],5,4/1h[8:3],,,8,57,6,5-2[8:1]/3,4,5/8-4[8:1],,8,,35,2,17,6,1-5[8:1]/5,,1-4[8:1]*-3[8:1],,1-6[8:1]*-7[8:1],,1v4[4:1],,
{16}5h[8:1],,,5h[8:1],,,5,,
{8}75,6,3/5v2[16:3],4,5/8h[8:3],,,1,42,3,4v7[16:3]/6,5,4/1-5[8:1],,1,,46,7,82,3,8v3[8:1]/4,,1>4[8:1]/8,,
{16}5,6,7,8,5,4,3,2,8-4[8:1],7,6,5,8b/4b,,,,
26,,3,4,2,4,1,4,2b-5[8:1],,,,28,,,,74,,6,5,7,5,8,5,7b-4[8:1],,,,73,,,,25,,1,4,2,4,3,4,2b-5[16:2],,,,2/6h[16:3],,,,
6,5,7,,6,5,8,,5,4,1,,5,4,6,3,
{4}2/7-4[8:1],2-5[8:1]/7,7-1[8:1]*-3[8:1]/2,7-5[8:1],7/2-8[8:1],7-3[8:1]/2,1-4[8:1]*-6[8:1],1,
{8}35,35,24,13,24,35,46,57,
{16}8,1,7,2,6,3,5,4,6,5,7,4,8,3,1,2,
{12}8b,8,3,7,7,2,6,6,1,5,5,8,
{4}4-8[8:1],2-6[8:1]/4,8-4[8:1]/2,8,
{16}1,2,3,4,15,,1,8,7,6,51,,
{32}1,2,3,4,5,6,7,8,
{16}1b>4[8:1]/5bpp2[16:5],,,,,,,,,,1,,8<5[8:1]/2,,3,,
8-4[8:1],4,3,,8,3,2,,15,2,3,4,85,7,6,5,
4V68[8:1]/8V24[8:1],,,,8v5[8:1]/4,,,,3V17[8:1]*V57[8:1],,,,3,,,,15,,26,,37,,48,,5/1-5[16:2],8,7,6,5b/1b,,,,
{16}64,,3>8[8:1],4,,4,3,,5,,6<1[8:1],5,,5,6,,
4-8[8:1],,,,34,,2,,1h[16:2]/7,6,5,,2h[16:2]/6,5,4,,
3>8[16:3]/4,,,4,,,4,,4-8[8:1],5,6,7,8b/4b,,,,
6<2[16:3]/5,,,5,,,5,,5-1[8:1],4,3,2,5b/1b,,,,
{16}
7<4[8:1]/3qq6[8:3],,,,,,,,,,8,,1>4[8:1]/7,,6,,
1-5[8:1],5,6,,1,6,7,,84,7,6,5,14,2,3,4,
1<6[8:1]/5>2[8:1],,,,1q5[8:1],,,,8<5[8:1]*>3[8:1],,,,8,,,,3<6[16:2],,5<8[16:2],,7>2[16:2],,1>4[8:1],,4,5,6,7,8-4[8:1],,,,
{16}82,,,3,3,,62,,5/1-7[8:1]*-3[8:1],,,,1q5[16:2],,,,6h[16:7]
,,,,,,4,4,6,5,6,5,7,4,{32},7,6,5,{16}4,,,5h[8:1]/2,,,36,,4/7h[8:1],,,3/6h[8:1],,,52,,
1b,5,3,5,3,5,2b,6,4,6,4,6,3b,7,5,7,5,7,2b,6,4,6,4,6,4,,3h[4:1]/1b,,,,,,
7b,4,5,4,5,4,6b,3,4,3,4,3,7b,4,5,4,5,4,8b,5,6,5,6,5,6,,7h[4:1]/1b,,,,,,
3b,4,3,2,3,,6b,5,6,7,6,,3b,4,2,4,1,,6b,5,7,5,8,,56,,3h[4:1]/1b,,,,,,
7b,3,4,3,1,,3b,6,5,6,8,,6b,3,7,2,8b-6[16:2]/1b-6[16:2],,,,8b-3[16:2]/1b-3[16:2],,,,8b-4[16:2]/1b-5[16:2],,,,8b/1b,,,,
7,6,5h[8:1],3,4,5h[8:1],7,6,5h[8:1],2,3,4,65,,75,,
2,4,3,4,2,4,1,4,
8,6,5,7,4,8,3,1,
2,8,2,7,2,6,2,5,
4,6,5,6,7,6,8,6,{12}1,4,3,8,5,6,{24}4,5,4,5,4,5,{16}4,5,63,72,18,,,,45,,6,5,
7h[8:1],,3,6h[8:1],,2,5h[8:1],,1h[8:1],,5,2h[8:1],,6,3h[16:3],,7,,
38,7,6,52,3,4,8/5h[16:2],,7,5h[8:1],,6,5,,4/5h[16:2],,3,5h[8:1],,2,5,,
1h[8:1]/5,,6,1h[8:1],,7,1,,8-4[8:1]/1,,,,4b/8b,,,,
15,2,3,4,2,3,4,5,3,4,5,6,4,5,6,7,48,3,2,1,85,6,7,8,14,3,2,1,58,7,6,5,
4h[8:1]/8h[8:1],,,1h[8:1]/3h[8:1],,,24,,5h[8:1]/1h[8:1],,,6h[8:1]/8h[8:1],,,57,,
{24}1,8,1,8,1,8,1,8,1,{16}2v1[8:1]/7v8[8:1],36,45,,,,,,,,
4,5,2,1,3,8,4,5,8,7,1,8,3,6,2,7,4,5,1,8,{16}3,4,1,8,
2h[16:2]/7h[8:1],,,6h[8:1]/1h[8:1],,,37,,
{24}1,5,1,5,1,5,1,5,1,5,1,5,1,5,1,5,1,5,1,5,1,5,1,5,
1,2,3,8,7,6,2,3,4,7,6,5,2,3,4,1,2,3,7,6,5,8,7,6,
{16}5/1b,,,6h[8:1]/2,,,73,,8h[8:1]/5,,,7h[8:1]/4,,,63,,{4}1pp4[8:4]/8qq5[8:4],,,,
1V35[8:5],7,7,7,8v5[8:5],2,2,2,1V73[8:5],6,6,6,5V36[4:2],2,2,2h[4:1],
{8}7-5[16:2],,8,,1-7[8:1],,2,,3-1[8:1],,4,,5h[8:2],,1,{24}15,26,37,
{16}
8<5[16:2]/4,,,3,,,2,,1bqq6[8:3],2,3,4,5,,,,
4,,,3,,,2h[8:1],,{32}6,5,4,3,2,1,8,7,{16}6b/2b,,,,
3V17[16:3]/7qq4[16:5],,,,,,,,,,2,,3>8[8:1]/5,,6,,
3-7[8:1],7,6,,3,6,5,,7,8,4,5,1,2,4,5,
7-3[8:1],,1-4[8:1],,7-4[8:1],,1,,7>3[4:1],,,,3>7[4:1],,,,5-1[8:1],,,,5,,,,5V73[16:3],3,5,3-1[8:1],5,,,,
{16}4-8[8:1],,,7,7,,6,,5-3[8
:1]*-8[8:1],,,,5-1[16:2],,,,2h[8:3]
,,,,,,8,8,2,1,3,8,2,1,{32},2,3,4,{16}56,,,5h[8:1]/8,,,74,,6/3h[8:1],,,5/2h[8:1],,,41,,
{4}8-4[8:1]/3-1[8:1],8b/3b,1-5[8:1]/6-8[8:1],1b/6b,
{16}4h[8:1]/5h[8:1],,,3h[8:1]/6h[8:1],,,27,,{24}8bv5[8:7]/1b,72,63,54,,,{4},,,1-5[8:1],1b,
{8}
8-6[8:1],1,8-4[8:1],{16}2,2,{8}8-5[8:1],3,8-3[8:1],{16}2,2,{8}8-6[8:1],1-5[8:1],8-4[8:1],1-3[8:1],8-5[8:1],1-4[8:1],8,1,
8-6[8:1],1,8-4[8:1],{16}2,2,{8}8-5[8:1],3,8-3[8:1],{16}2,2,{8}8,1,2v5[8:1]/8v5[8:1],73,2b>5[8:1]/8b<5[8:1],,2b/8b,,
1>4[8:1],8,1-5[8:1],{16}7,7,{8}1>4[8:1],6,1-5[8:1],{16}7,7,{8}1>4[8:1],6-2[8:1],1-5[8:1],{16}6-8[8:1],,{8}1>4[8:1],6-2[8:1],1,6,
4-1[8:1],8-3[8:1],4-7[8:1],8-5[8:1],{8}4-1[8:1],8>3[8:1],4,{16}8,,
4,5,3,6,4,5,2,7,1h[32:1],8h[32:1],3h[32:1],6h[32:1],2h[16:1],7h[16:1],{32}1,2,3,4,{16}1h[8:1]/5h[8:1],,,2h[8:1]/4h[8:1],,,35,,4h[8:1]/6h[8:1],,,3h[8:1]/7h[8:1],,,28,,{12}1,1,6,2,2,7,3,3,8,4,4,1,{4}5-1[4:7],,,,,,,,
