&title=サンダーレスキュー!
&artist=TriumTone
&first=0
&des=憧れが繋ぐ三角形
&lv_5=14
&inote_5=(205)
{1},,
{8}3h[4:7],,4,,,,4,,
{8},,4,,,,4,,
{8}6h[4:4],,5,,,,5,,
{8}3h[4:3],,2,,1,,{16}8,7,6,5,
{16}2x/4x,,,17,,,56,,,34,,,B2/E3/B3/B7/E7/B6,,,,
{8}1,8,2,2,6,5,4/7,7,
{16}4,5,4,,6,5,6,,4,5,4,,3,,3,,
{8}8,1,7,7,3,4,5/2,6,
{8}57,6,6,24,3,3,5,4,
{8}47,6,6h[8:4],5h[8:3],,,,,
{8}24,42,4V68[8:3]/2,,1,,3,3h[4:1],
{8},1,1h[4:1],,8,,6,5,
{8}75,,5V31[8:3]/7,,8,,6,6h[4:1],
{8},8,8h[4:1],,1,,2,7,
{8}61,,1>5[8:3]/6,,6,,7,,
{8}84,,8<4[8:3]/4,,3,,2,,
{8}1b-5[8:1],,7b-1[8:1],,3b-7[8:1],,5b-3[8:1],,
{8}1b-5[8:1],,6,,8^5[8:1]*^3[8:1],,,,
{8}2x/4x,4x/2x,4x/2xv3-5[8:3],,5,,6,,
{8}7,8h[4:1]/5,,3h[4:1],,4,25,,
{8}7/5,57,5/7v6-4[8:3],,4,,3,2h[4:1],
{16},,8h[4:1],,,,1,,8,,,57,,,24,,
{8}6/1,16,1/6-1[8:1],,2,2h[4:1],,4h[4:1],
{8},5h[4:1],,6pp6[4:1]*qq6[4:1],6,,,,
{16}3xh[8:3],,,,,,8,2,7,,7,,7,,7,,
{16}2,1,3h[4:1],,,,6,5,7h[4:1],,,,1,,,,
{8}1h[4:1],,3v8b[8:1],,2-4b[8:1],,,,
{8}8h[4:1],,6v1b[8:1],,7-5b[8:1],,,,
{8}7/3-6[8:1],,3/7pp8-5b[8:3],,4,4,,,
{8}26,26,37,37,4v1[8:1]/8v5[8:1],,C,,
{8}1x-5[8:1]/6x-1[8:1],,1/6,,4-8[8:1],2-5[8:1],4,2,
{8},37,2,17,6-4[8:1],,4,3,
{8}4x^7[8:1]/1,,2,,5x^2[8:1]/8,,7,,
{8}18,27,18,27,1-5[8:1]/8-4[8:1],,,,
{8}8-4[8:1],,8qq4[8:3]*pp4[8:3],,,,,,
{8},82,7,82,3-5[8:1],,5,6,
{8}7h[8:1],5h[8:1],8h[8:1],3h[8:1],4qq2[8:1]*v6[8:1],,,,
{8}45,36,45,36,4-8[8:1]/5-1[8:1],,,,
{8}3^8[8:1],,8^3[8:1],,5-1[8:1],7-4[8:1],5,7,
{8},62,7,82,3-5[8:1],,5,6,
{8}6x^8[8:1]/4x,,5,,3^1[8:1]/5,,4,,
{8}27,36,27,36,2-5[8:1]/7-4[8:1],,,,
{16}2xh[8:3],,,,,,1,2,8,,8>4[16:6],,,,7,,
{8},7,,6,E7/B7/B6/B5/E5,,B4/E3/B3/B2/C,,
{8}1xs5[4:2]/6xh[4:3],,,,,,,,
{8}3b/6b,2b/7b,3b/6b,2b/7b,3b-5[8:1]/6b-4[8:1],,,,
(159.99)
{8}1b/6,2b/7,3b/8,
(160)
{16}21,,3,4,,4,2,,71,,3,,
{16}71,,7,8,,8,6,,35,,7,,
{16}3h[8:1],,4,2/5,,,6h[8:1],,5,47,,,
{8}8p6[8:3]/1,,,1b,1b,1b,
{16}1h[16:2],,7,2h[16:2],,8,3h[16:2],,1,,3,,
{16}4/5,,2b,,5,4,7b,,45,,2b,,
{16}5h[16:2]/4,,3,6h[16:2],,4,7h[16:2],,5,,7,,
{16}1/8,,3b,,8,1,6b,,18,,3b,,
{16}8h[16:2],,2,7h[16:2],,1,6h[16:2],,8,,6,,
{16}45,,3,4,,2,1-4[8:1],,8,,7,,
{16}6h[8:1],,5,74,,,2h[8:1],,1,83,,,
{16}47,,6,5,6,5,6,5,4b/7b,,,,
{16}28,,3,6,4h[8:1],,8,,2h[8:1],,6,,8/4h[8:1],,7,,
{8}2h[8:1]/6-1[8:1],,4h[8:1]/6-4[8:1],,2h[8:1]/6-1[8:1],,4h[8:1]/6,,
{16}28,,8-4[8:1],1,7,,8b,,,,2,,34,,2,,
{16}81,,2,1,,7,8,,6/1w5[8:1],,,,1b,,,,
{16}7h[16:3]/3,,,5h[16:3],,,4<7[8:1],,,,3,,2,,1,,
{16}8/2h[16:3],,,4h[16:3],,,5-1[8:1],,,,6,,7,,8,,
{8}2h[4:1],8,7h[4:1],5,3h[4:1],4,6h[4:1],5,
{8}1h[4:1],8,4h[4:1],2,3h[4:1],1b,4h[8:1],1b,
{16}2-6[8:1],,,6,2V48[4:1],,8,,7xb,,7xb,,7bx,,,,
{16}6h[16:3],,,5h[16:3],,,4v7[8:1],,,,2b,,2b,,2b,,
{16}6-4[8:1],,,4,6V84[4:1],,2,,3xb,,3xb,,3bx,,,,
(205)
{8}4w8[8:1],,4xb>4>4[4:8]*<4<4[4:8]/E4f/E5f/D5/D4,,,,,,
{8},,,,,,,,
{8},,,,,,,2x/5x,
{8},3,4,3,25,3,4,2,
{8}1s5[4:1],,5qq5[8:2],,,,,8x,
{8},2,1,2,38,2,1,2,
{8}3x/8x,2,1,2,3x/8x,4,5,6x/4x,
{8},7,8,7,6x/1x,7,8,7,
{8}1s5[4:1],,5qq5[8:2]*pp6[8:2],,,,,,
{8}2xv5[8:1]/7x-2[8:1],,,,2x-7[8:1]/5x-2[8:1],,,,
{8}1xv4[8:1],,,,5x/6x,,7x/8x,,
{8}2x/1xv4[8:1],,,,1x-7[8:1]/5x-8[8:1],,,,
{8}2x-7[16:2]/6x-3[8:1],,,,8x-4[8:1],,4x,,
{8}35,46,1b,,35,46,1b,,
{8}35,46,1b,,35,46,1b,,
{8}7xpp8-5[8:5],,,,4-1[8:1],,,,
{8}2x/6x,3x/7x,2x/6x,3x/7x,2x-7b[8:1]/6x-3b[8:1],,C,,
{16}1x/8x,2x/7x,3x<6[8:3]/6x,,{4},,,
{16}7x/2x,6x,5x,,{4},{16}6x/1x,2x,3x,,{4},
{16}3x/8x,7x,6x>3[8:3],,{4},,,
{16}1x/8x,2x-7[8:1]/7x-2[8:1],3x/6x,,{8},,,4b/5b,,,
{8}1,1,7,7,3,3,5,5,2-5[8:1],2,6-1[8:1],6,4-7[8:1],4,8-3[8:1],8,
{1}5xhb[8:7],
{8}5b/1b,5b/1b,4b/8b,4b/8b,3bv4b[8:1]/7bv8b[8:1],,C,,
{16}2x^5[8:1],,6,5,2,,7,,1-5[8:1],,5,4,1,,7,,
{16}2^5[8:1],,6,5,2,,7,,1-5[8:1],,5,4,1,,7,,
{16}7^4[8:1],,3,4,7,,2,,7-3[8:1],,3,4,7,,2,,
{8}2b/6b,4b/8b,2b/6b,4b/8b,2bv4[8:1]/6bv8[8:1],,,,
{16}6hx[8:3],,,,,,5,6,4,,4<8[16:6],,,,3,,
{8},3,,2,B5/E7/B6/B7/C,,E3/B2/B3/B4/E5,,
{8}1xs5[4:2]/6xh[4:3],,,,,,,,
{8}5b/1b,3b/7b,1b/5b,3b/7b,1bs5[16:3]/5b,,,,
{8}6h[4:1],,8v5b[8:1],,7-4b[8:1],,,,
{8}3h[4:1],,1v4b[8:1],,2-5b[8:1],,,,
{8}5x>8[16:3]/6x,5,,,4x<1[16:3],4,,,
{8}5,,4pp6b[8:1]*qq2b[8:1],,,,,,
{8}15,1,15,1,1/7b,1,1/7b,1,
{8}15,1,15,1,1/7b,1,1/7b,1,
(230)
{8}1w5[8:1],,,,3-7[8:1]/7-3[8:1],,,,
{8}5v2[8:1]*v8[8:1],,,,{16}7,1,7,1,7,1,7,1,
{8}6b/2b,6b,1b,8b,{8}3b/7b,3b,5b,4b,
{8}1b/6b,6b,8b,7b,{8}5b/2b,2b,4b,3b,
{8}7b/5b,7b,4b,5b,{8}3b/1b,3b,8b,1b,
{8}5b/6b,6b,3b,4b,{8}1b/2b,2b,7b,8b,
{8}4b/6b,3b,5b,3b,6b/2b,5b,1b,7b,
{8}3b/8b,2b,5b,4b,7b/5b,6b,2b,1b,
{8}8x-4[8:1],,,,3x^1[8:1]/5x^7[8:1],,,,
{16}2x,,6,5,4,,1,,8,,7,,6,,5,,
{8}1-4[8:1],,16,,1-6[8:1],3,1,,
{8}1-4[8:1],,16,,1-6[8:1],3,1,,
{8}1-4[8:1],,16,,1-6[8:1],3,1,,
{8}1-4[8:1],,16,,8,{16}3,4,5,,7,,
{8}7h[4:1],,5,6-3[8:1]/4,,2,2,,
{8}2h[4:1]/4,,4,3-6[8:1]/5,,7,7,,
{8}3^8[8:1]/7,,5,,6^1[8:1]/2,,4,,
{8}3^8[8:1]/7,,5,,5-1b[8:1]/2,,4,,
{8}4b-1[8:1]/6,,5,6,7b-4[8:1]/2,,3,2,
{8}1b-5[8:1]/5,,5,6,4/7b-3[8:1],,3,2,
{8}1bs5[8:1],,,,8bz4[8:1],,,,
{8}2xb-5[8:1]/7xb-4[8:1],,,,E1/B8/Cf/B4/E5,,,,
