&title=什么?
&artist=ykn
&first=0
&des=?
&lv_5=?
&inote_5=(190)
{16}5?v2[8:1],,,,,,,,,,,,,,,,
,6z2[16:50],,,,,,,,,,,,,,,
,,,,,,,,,,,,,,,,
,,,,,,,,,,,,,,,,
,,,,,,,,1h[12:1],,,,1h[12:1],,,,
,,,,,1x-7[95#32:1],,3xv5[126#24:1],,3xv4[16:1],,,,,,,
{32},,5x-8[8:1]/4x-7[8:1],,,4x-1-3>2[16:1]/5xq1[16:1],,4x/5x,
{16},,,,,2x-4<5-7-2[4:1],,,,,,1b,
,,,,,,,,,4xbv2<7[10000#1:8],,,{32}6b,5b,4b,3b,2b,1b,
8b,7b,6b,5b,4b,3b,2b,1b,8b,7b,6b,5b,4b,3b,2b,1b,
8b,7b,6b,5b,4b,3b,2b,1b,8b,7b,6b,5b,4b,3b,2b,1b,
8b,7b,6b,5b,4b,3b,2b,1b,8b,7b,6b,5b,4b,3b,2b,1b,
8b,7b,6b,5b,4b,3b,2b,1b,8b,7b,6b,5b,4b,3b,2b,1b,
8b,7b,6b,5b,4b,3b,2b,1b,8b,7b,6b,5b,4b,3b,2b,1b,
8b,7b,6b,5b,4b,3b,2b,1b,8b,7b,6b,5b,4b,3b,2b,1b,
8b,7b,6b,5b,4b,3b,2b,1b,8b,7b,6b,5b,4b,3b,2b,1b,
8b,7b,6b,,,,,,,,,,,,,,,,
{1},,,,,,,,,,,
{16},,,,,8?-5[8:1]*z4[8:1],,,,,,,,,,,
&inote_6=
