&title=迷星叫
&artist=MyGO!!!!!
&first=0
&des=Xzzzz
&lv_5=13+
&inote_5=(190)
{4},,,,{2}6h[1:1],,5h[1:1],,4h[1:1],,{4}1,1,1h[4:1],{32}7,6,5,4,3,2,1,8,{8}7bpp7[2:1]/3bpp3[2:1],,,,,,,1,2bqq2[2:1]/6bqq6[2:1],,,,,,,,8bv6[2:1]/4bv2[2:1],,,,,,,3,1b>5[2:1]/5,,6,,7,{16}8,1,2,3,4,5,
{8}6h[8:1]/3-8[8:1],,6h[8:1],,6h[8:1]/7-2[8:1],,6,5,4-8[8:1]/3h[8:1],,3h[8:1],,3h[8:1]/1-5[8:1],,3h[8:1],,{16}38,,2,1,2,,16,,7,8,7,,16,,25,,{8}3-7[8:1],4-8[8:1],3,4,,1,1b,,
{8}6<1[2:1],,5,5,,4,4,,3>8[2:1],,4,4,,5,,6,4/6>3[2:1],,2,2,,1,1,,7/8>3[2:1],,6,6,,5,5,,4<7[2:1],,3,3,,2,,1,8/1pp4[2:1],,7,7,,,6,5,4-8[8:1],,1,1,,7p4[2:1],,3h[2:1],,,,,,,
4,5,3b/6b,2-5[8:1],1,2,7-4[8:1],8-3[8:1],7,8,6h[2:1],,2q5[4:1],2,,,,,7,6-1[8:1],5,6,3-8[8:1],4-7[8:1],3,4,2h[2:1],,5pp1[4:1],5,,,,,3b/6b,2-5[8:1],1,2,7-5[8:1],8-4[8:1],7,8,7-3[8:1],8-2[8:1],7,8>6[2:1],,5,6,7h[4:1],,,8h[4:1],1h[8:1],,27,36,45,,{16}3,6,{8}2h[8:1],3h[8:1],4h[8:1],5h[8:1],6h[8:1],7h[8:1],
{8}3h[8:1],4,3h[8:1],5-7[8:1],3h[8:1],5,3h[8:1],8,3h[8:1],1h[8:1],3h[8:1],8h[8:1],3h[8:1],7h[8:1],3h[8:1],7,
{8}5/6h[8:1],5,6h[8:1],4-2[8:1],6h[8:1],4,6h[8:1],1,6h[8:1],2h[8:1],6h[8:1],3h[8:1],6h[8:1],
{16}3,4,3,4,3,4,
{8}2h[8:1],5,2h[8:1],5<7[8:1],2h[8:1],5,2h[8:1],8,2h[8:1],7h[8:1],2h[8:1],6,
{16}1h[8:1]/5h[8:1],,,2h[8:1]/6h[8:1],,,37,,4b-1[8:1]/8b,,,,
{4},7-2[4:1],2-5[4:1],5-8[4:1],8-3[4:1],3-6[4:1],6qq3[2:1],2h[4:1],,{8}2,2,1,8,{16}3b,5,4,5,4,5,2b,6,5,6,5,6,1b,7,1,7,
{1}8bw4[2:1],
{8}1-7[8:1]/2-6[8:1],,1-5[8:1]/2,,1,,3,2,1-5[8:1],,1/7-2[8:1]*-4[8:1],,7,,3,2,5<8[8:1]/1>4[8:1],,1-5[8:1],,1,3h[4:1],,8-4[8:1],1-5[8:1],8,1,,7h[4:1],,
2-6[8:1],,2/8>3[8:1]*<5[8:1],,8-4[8:1],,8,,1v6[8:1]/5v2[8:1],,1>4[8:1],,1<6[8:1],,1,,2,2,34,2,56,7,24,1,57,8,2-6[8:1],1-5[8:1],2,1,8,{16}8,1,2,3,4,5,{4}6h[4:1],
{8}7-4[8:1],8,2-5[8:1],1,7-5[8:1],8-4[8:1],7-3[8:1],8-2[8:1]
,7,8<5[8:1],,8,,4qq4[6:1]*pp4[6:1],4,,,,7-3[8:1],,7/1-5[8:1],,81,,36,3-6[8:1]/6,,7-3[8:1],7h[4:1],,,,{4}2q6[4:1],6q2[4:1],2>6[4:1],6<2[4:1],2>6[4:1],6,{8}7,7,
{16}28,,3,4,3,,17,,6,5,6,,28,,28,,5,,17,,4,,35,,8,,{16}8,1,2-6[8:1],3,4,5,{8}6h[4:1],,3-8[8:1],,3/7-4[8:1],,27,,{16}38,,2,1,2,,16,,8-4[8:1],7,{8}1b,3b/8b>6[1:1],,
{1},
{8}1,1h[8:1],7,7h[8:1],5,5h[8:1],3,3h[8:1],
2>5[8:1],2,1,8,7>2[8:1],7,6,5,4,4h[8:1],2,2h[8:1],8,8h[8:1],6,6h[8:1],
8>3[8:1],8,7,6,5<8[8:1],5,4,3,2,2h[8:1],4,4h[8:1],6,6h[8:1],8,8h[8:1],
1>4[8:1],1,8,7,6<1[8:1],6,5,4,3,3h[8:1],5,5h[8:1],{16}8,7,8,7,8,7,8,7,
(190){8}16,2,38,7,56,1,34,8,57,8,24,1,38,7,16,2,
3-6[8:1],3,8-5[8:1],8,1-4[8:1],1,7-2[8:1],7,6-3[8:1],6,8,8,1,28,3b/7b,,
(190)
{16}25,,2/5-1[8:1],36,47,,5b,,,,5,,5h[4:1],,,,1,,1-5[8:1]/5,26,37,,1b,,,,8,,8h[4:1],,,,4,,4/8w4[8:1],37,26,,8b,,,,2,,2h[8:1],,,,{8}12,12,38,38,47,47,5/6-2[8:1],,3-7[8:1],4,3,4,{16}1,5,2,6,3,7,4,8,{1}5bw1[2:1],
{1}3qq8[1:1],7qq3[1:1],1pp4[1:1],{4}6<1[2:1],,,2-5[8:1],6,6,6,7-4[8:1],3,3,3,1b,
{8}47,{16}3,2,{8}15,15,26,26,37,3b/7b,,2-5[8:1]/6-1[8:1],15,2b/6b,,{16}8,4,8-4[8:1],4,8,4,
{4}8b,{8}3-6[8:1],2,7-4[8:1],8,2-6[8:1],1-7[8:1],2-4[8:1],1-5[8:1],2,1-3[8:1]*-4[8:1],,1,,6,6-1[8:1],,6/3-5[8:1],,3-7[8:1],8,3,,6<1[8:1],1>4[8:1]*q5[8:1],6,,,,2b/6b,,
{4}7-2[8:1],7/3-6[8:1],8-5[8:1]/3,8/4-1[8:1],4/7-2[8:1],7/3-6[8:1],5-8[8:1]/3,
{8}5,2,
3-7[8:1],4-8[8:1],3,4-2[8:1]*-6[8:1],,4w8[8:1],,4,,{8}35,35,26,26,{16}1,7,1-5[8:1],7,1,7,{4}1b,
{8}7-4[8:1],7,7/2-5[8:1],2,62,6,{16}71,,6,5,6,,38,,1-5[8:1],2,{8}7b,5b/1b,,
(190){8}7h[8:1],4,4,6h[8:1],3,3,5h[8:1],2,4-8[8:1],4,1-5[8:1],1,7-3[8:1],7,2,2,
1h[8:1],4,4,2h[8:1],5,5,3h[8:1],6,6,4,7,7h[8:1],2,2h[8:1],5,5h[8:1],1-4[8:1],1,7-2[8:1],7,3-6[8:1],3,8-5[8:1],8,2-6[8:1],2,1-5[8:1],1,8-4[8:1],8,7-3[8:1],7,1,24,8,57,48,48,13,13,{16}2,,6,5,6,,17,,3,4,3,,{32}1,8,7,6,5,4,3,2,(190){1}1b>1[1:4]*<1[1:4]/5b,
