&title=LegenD.
&artist=Yooh
&first=0
&des_1=Sayhallo
&des_2=Sayhallo
&des_3=Sayhallo
&des_4=Sayhallo
&des_5=嬬武器烈風刀
&lv_5=13+
&des_6=Sayhallo
&des_7=Sayhallo
&des=嬬武器烈風刀
&inote_5=(205)
{1},
{8},,C1f/E7h[8:31]/E3h[4:15],,{4},,,,,,,,,,,,,,
{8},,E4h[2:5],,{4},,,E6h[2:3],,,,E5hf[2:1],,,,
{8}3,3h[8:1],6,6h[8:1],{16}2,5,2,,7,4,7,,
{8}3-8[8:1],,35,,3-1[8:1],5,3,,3v8[8:1],5,3,7,1x-4[8:1]*-5[8:1],,A1,,
{8}6-1[8:1],,64,,6-8[8:1],4,6,,6v1[8:1],4,6,2,8x-5[8:1]*-4[8:1],,A8,,
6hx[4:1]/B1h[8:1]/E2h[8:3]/B2h[4:1],,,,
3hx[4:1]/B7h[8:1]/E8h[8:3]/B8h[4:1],,,,
2x,3x/8,7,61,5,36,27,18,
2q5[2:1]/7,,,,,,,,
7p4[2:1]/4,,,,,,,,
3h[8:1]/5h[8:1],,5<7[4:1]/B2h[8:1],,1x,2,3,,
4h[8:1]/6h[8:1],,4>2[4:1]/B7h[8:1],,8x,7,6,,
1h[8:1]/5h[8:1],,2h[8:1]/5h[8:1],,3h[8:1]/5h[8:1],,
4-1[8:1],,4/5-1[8:1],,5/6-1[8:1],,6,,
8h[8:1],,2,2h[8:1],7,7h[8:1],3,3h[8:1],6,6h[8:1],4qq1[4:1],,6,7,8qq5[4:1],,
{16},,,,2,,2,,2/B5/E6f/B6,,,,7,,7,,7/B3/E4f/B4,,,,4x-8[8:1],,,,7-2[8:1],,,,
{16}1w5b[8:1],,,,B4/B5f/B6,,,,
{8}
3-6[8:1],,37,,3-7[8:1]*-7[8:1],,36,,3-8b[8:1],,35,,4h[8:1],1,5h[8:1],3,
6-3[8:1],,26,,6-2[8:1]*-2[8:1],,36,,6-1b[8:1],,46,,5h[8:1],7,4h[8:1],6,
3-1[8:1]/5-1[8:1],,35,,3-7[8:1]/5-7[8:1],,35,,4-8b[8:1],,4b,,1,7,2,6,
{16}35,,35,,B7/B8f/B1,,,,1x/7x,,17,,B3/B4f/B5,,,,
{8}
2-7b[8:1],,2/6-3b[8:1],,1-5b[8:1]/6,,
C1f,,6,6h[8:1],4,3h[8:1],{16}5h[8:1],,2,2,
5,,1,,8h[8:1],,6,,1h[8:1],,7,,B2hf[4:1],,B6hf[4:1],,,,,,
{8}3,3h[8:1],5,5h[8:1],{16}2h[16:3],,,4,1,,5,,{8}6h[4:1],,{32}E1,E2,E3,E4,E5,E6,E7,E8,
{8}E1h[4:1]/C1f,,,,
{8}7-4[8:1],7,1,1,8-5[8:1],8,2,2,1-6[8:1],1,3s7[2:1]*z7[2:1],3,,,,,,,
{8}1x-5[8:1],1x,6,6,2-5[8:1],,{16}8-4[8:1],,,1-5[8:1],,,7-4[8:1],,
{8},,3b,2b,
{16}1-7[8:1],,,,4,,4,,1-5[8:1],,1x,,6,,6,,1-4[8:1],,1x,,7,,7,,
3-1[8:1],,8-4[8:1],,3,,8,,,,,,5-7[8:1],,5x,,1-3[8:1],,1x,,
4-8[8:1],,4x,,2,,2,,7h[8:1]/1h[8:1],,,,2-6[8:1],,6-2b[8:1],,
2,,,,B6/E7f/B7,,,,3/5x,,2,,
1/8-3[8:1],,,7,6hx[8:1]/8,,,,2h[8:1]/5h[8:1],,,,2xV84b[4:1]/4x,5,6,7,8h[4:1],,,,,,,,
7<4[8:1],,,3,7,,2,,1>4[8:1],,,5x,1,,6,,7p3[8:1],,,3,7,,2,,1p5b[8:1],,4x-8b[8:1],,
1b,,4b,,{8}B1/B2/B3/B4/B5/B6/B7/B8/C1f,,,,,,,,
{16}1>3[4:1],,,,3<5[4:1],,,,5<7[4:1],,,,7>1[4:1],,,,
1>4[4:1]*>4[4:1],,,,4<7[4:1]*<7[4:1],,,,7>2[4:1]*>2[4:1],,,,
2bx>6b[4:1],,,,6bx<2b[16:3],,,,2bx,,,,{32}3x,4x,5x,6x,7x,8x,1x,2x,{8}3bx/C1f,,
(206)
{8}4x/5x,6,45,3,12,8,1-6[8:1]/7,,1-4[8:1]/3,,1-5[8:1]/7,,13,,16,16,
7x/8,6,45,3,12,12,18,18,
{4}7-5[8:1]/8-4[8:1],7-3[8:1]/8,7/1-4b[8:1],{8}1b,,
{16}6x,5,6,5,6h[8:1],,5h[8:1],,{8}7h[8:1],4h[8:1],6h[8:1],5b,
{16}3x,4,3,4,3h[8:1],,4h[8:1],,{8}2h[8:1],5h[8:1],3h[8:1],4b,
{16}2v5[8:1],,,5,2,,6,,7v4[8:1],,,3,7,,2,,1-5[8:1],,,5,1,,6,,{8}B7hf[8:3],B3h[8:1],,,
{8}2x,3,54,6,87,1,8-3[8:1]/2,,8-5[8:1]/6,,8-4[8:1]/2,,86,,83,83,
2x/1,3,54,6,87,87,81,81,
{4}2-4[8:1]/1-5[8:1],2-6[8:1]/1,2/8-5b[8:1],{8}8b,,
{16}3x,4,3,4,3h[8:1],,4h[8:1],,{8}2h[8:1],5h[8:1],3h[8:1],4b,
{16}6x,5,6,5,6h[8:1],,5h[8:1],,{8}7h[8:1],4h[8:1],6h[8:1],5b,
{16}7v4[8:1],,,4,7,,3,,2v5[8:1],,,6,2,,7,,{4}8<5[8:1],2>5[8:1]*>5[8:1],1-5b[8:1],C1f,
{16}
2x,3,4,5,6,7,8,1,2-4[8:1],,,8,2,,8,,
1-3[8:1],,,7,1,,7,,8-4[8:1],,7-5[8:1],,8,,7,,
3x,2,1,8,7,6,5,4,3-1[8:1],,,6,3,,7,,
{4}8v5[8:1],1v4[8:1]/8,6-1[8:1]*-3[8:1],A6,
{16}8x,7,6,5,4,3,2,1,8-5[8:1],,,2,8,,3,,4-1[8:1],,,6,4,,7,,
8<5[8:1],,,2,8,,3,,4>1[8:1],,,6,4,,7,,8-4[8:1],,,2,8,,3,,
3x,5,3,5,3h[8:1],,5h[8:1],,2h[8:1],,6h[8:1],,1-5b[8:1],,7h[8:1],,
{8}C1f,,,8<5[8:1],,,4>1[8:1],,,6pp1b[2:1],,,2,3,4v7[8:1],,
8-5[8:1],,,4-1[8:1],,,6-1[8:1],,,2pp5b[2:1],,,1,8,7b,,
{16}6b,,4,5,4h[8:1],,5,,3,,5,4,6h[8:1],,4,,
7x,,1,8,1h[8:1],,8,,2,,8,1,8h[8:1],,1,,
{8}2,2,3,3,4,4,5,5,{4}6h[4:3],,,C1f,
{8}5h[4:1],,3,2h[4:1],,6,7h[4:1],,1>4[8:1],,1<6[8:1],,1-5b[8:1],,1b,,
{4}7-3[8:1],4>1[4:1]/7,{8}8,7,6,5,{4}4-8[8:1],1-3[8:1]/4,7-5[8:1]/1,A7f,
{8}
3h[8:1],4h[8:1],2h[8:1],4h[8:1],3-8[8:1],5-8[8:1],A3f,A5f,
1h[8:1],7h[8:1],1h[8:1],7h[8:1],2-5[8:1],8-5[8:1],2<4b[8:3],A8f,
{16}
A2f,,,,,,,,7p3[8:1],,,1,7,,1,,
2q6[8:1],,,4,2,,4,,7hbx[8:1],,5h[8:1],,8h[8:1],,5b,,
{8}1bq5[8:1],,6,7bp3[8:1],,1,2bp6[8:1],,4,5b<8[4:1],,,1b,2b,3b,4b,
5b,7,5,6b,4,6,3b,5,3,4b,2,4,2,15,68,7hx[8:1],
B3/E4f/B4,,B5/E6f/B6/2x,,B1/E2f/B2/6x,,B7/E8f/B8/3x,,
12,12,38,38,4b/7b,4b/7b,5b/6b,5b/6b,
{4}
B3hf[4:1]/B7h[4:1],,E2h[4:1]/E6hf[4:1],,
E3hf[4:1]/E7h[4:1],,E4h[4:1]/E8hf[4:1],,
6xz2b[4:7]/4xz8b[4:7],
{1},E
