&title=DEBSTEP!
&des=Ed@XF
&artist=Yaju
&first=0
&lv_5=14
&inote_5=
(65)
{1},,,
{16}45,,,1,28,,,8,8,,8,,17,,,,
{32}45,,,,,,45,,36,,,,,,45,,45,36,,,2>7[16:1]/7,,,,2/7<2[32:1],,,,,,,,
{64}1/7b,,,,1,,3,,
1,,4,,1,,5,,
2,,6,,3,,7,,
4,,8,,5,,1,,
5p1[8:1],4,3,2,1,8,7,6,
5b/1bp5[8:1],,,,,,,,
5^2[64:3]*^8[64:3],,,,,,,,
,,,,,,,,
{64},,,,,1,,,
1,,,1,,,1,,
28,,,37,,,46,,
7,,8,,4,,3,,
6,,5,,1,,2,,
1h[8:1],,,,,,,,
,2,3,4,5,6,7,8,
15,4,3,2,1,8,7,6,
{64}5b/1b,,,,1h[512:1],,1h[512:1],,
1h[512:1],,5h[512:1],,4h[512:1],,6h[512:1],,
3h[512:1],,7h[512:1],,2h[512:1],,8h[512:1],,
2-6[16:1],,,,,,,,
2,2,2,2,2,2,2,2,
2b,,,,,,,,
1,,8,,2,,7,,
2,3,4,,5,,1,,
{64}27,,,,,,,,
1^3[32:1],,3^5[32:1],,5^7[32:1],,7^1[48:1],,
6h[1:1],,,,,,,,
,,,,,,,,
2,3,4,5,,7,8,1,
2,,3,,4,,5q8[10:1],,
,,7,,,8<3[64:11],,,
{24}1,3,5,
{64},,,,,,,,
,,,,,,,,
,,,,,,,,
8>5[64:5]/4,1>6[64:5]/5,2>7[64:5]/6,3<8[64:5]/7,,,,,
1,8w4[64:7],7,6,,,,,
8,,,,,,,,
,,,,,,,,
,,,,,,,,
{128}2-6[32:1]/6h[8:5],3,4,5,,,,,
,,,,,,,,
5qq1[16:1],,7,8,,,,,
,,,,,,,,
2,,,,,,,,
,,,,,,,,
,,,,,,,,
,,,,,,,,
1,,2,,3,,4,,
5,,,,7,,8,,
15,,,,,26,,,
,,37,,,,,,
4,,,,8,,,,
4,,,,8,,,,
37,,,,,26,,,
,,15,,,,,,
{64}1,,5,,2,,5,,
3,,5,,4,,5,,
4,5,6,7,8,1,2,3,
4,5,6,7,84,15,26,37,
4b/8b,,,,,,,,
4,3,4,3,4,3,4,3,
52,,,,,,,,
1,,8,,1,,8,,
{64}2V85[8:1]/7V14[8:1],,,,,,,,
4,,5,,3,,6,,
2b/7b,,,,,,,,
,,,,,,,,
5,4,6,3,,,,,
2b/7b,,,,3,,5,,
4,,5,,1,,5,,
4>5[4:7],,5,,7,,5,,
{64}4b,,,,,,,,
,,,,,,,,
,,,,,,,,
,,,,,,,,
,,,,,,,,
,,,,,,,,
,,,,,,,,
,,,,,,,,
{64}4,,,,,,,,
4,,,,,,,,
4,,,,,,,,
4,,,,,,,,
4,,,,4,,,,
4^1[32:1],,,,4,,,,
4,,4,,4,,4,,
4b,,,,,,,,
{64}1-4[16:1],,,,,,6,,
4,,,,,,,,
1-6[16:1],,,,,,3,,
5,,,,,,,,
1^4[16:1],,,,,,4,,
7,,,,,,,,
1-5[16:1],,,,,,6,,
2,,,,,,,,
{64}1-4[16:1],,,,,,6,,
74,,,,,,,,
1-6[16:1],,,,,,3,,
25,,,,,,,,
1^4[16:1],,,,,,4,,
57,,,,,,,,
1-5[16:1],,,,,,6,,
72,,,,,,,,
{64}5-8[16:1],,,,,,,,
,,,,,,,,
{48}5-2[16:1],4,3,2,,,
{64}5,,,,,,,,
5^8[16:1],,,,7,,,,
{48},,,2,3,4,
{64}5-1[16:1],,,,3,,26,,
,,,,8,,,,
{64}5-8[16:1],,4,,,,3,,
,,48,,51,,,,
5-2[16:1],,,,2,,,,
2,,,,25,,,,
{48}5^8[16:1]/8,1,2,3,,,
{64}4,,,,4,,,,
5-1[32:1]*-2[32:1]/3,2,1,8,,,,,
5,6,7,8,1,2,3,4,
{64}5b<4[64:7],,,,,,28,,
38,,,,48,,,,
1b-5[16:1]/5b-1[16:1],2,3,4,,,,,
51,62,73,84,,,,,
5bqq1[8:1]/1bqq5[8:1],,,,,,26,,
37,,,,48,,,,
1b/5b<3[16:1],,,,,,,,
,,,,,,,,
{64}5h[16:1],,,,,,,,
4,8,4,8,4,8,4,8,
{24}4,3,2,8,7,6,
{64}2,5,2,5,,,,,
{24}8^3[10:1]/4^7[10:1],73,62,
{64}1-4[32:1]/5-8[32:1],,8-5[16:1]/4-1[16:1],,,,,,
84,,,,,,,,
,,,,,,,,
{48}2,6,2,6,2,6,
{24}3s7[16:1],7,3,
{32}8-4[16:1],7,6,5,3/4w8[32:1],,,,
,,,,,,,,
26,,,,
{64}8,7,6,5,2,3,4,5,
{48}1,2,3,4,5,6,
{32}3^6[8:1],2,1,8,6^3[16:1],7,8,1,,,,,,,,,1,8,1,8,
{24}2,7,2,
6,5,4,38,2,1,85,7,6,52,4,3,72,8,1,25,3,4,58,6,7,83,1,2,24,3,3,86,7,7,57,6,6,13,2,2,
{24}36,,2,7,2,7,1-4[8:1]/8,,,18,,,
{4}1b/8b-5[8:1],7-2[8:1]/8,3-6[8:1]/7,4-1[8:1]/3,5-8[8:1]/4,5^8[8:1]/1^4[8:1],1qq5[8:1]/5qq1[8:1],
{8},,7/3h[512:1],8h[512:1]/4,1/5h[512:1],2h[512:1]/6,3/7h[512:1],4h[512:1]/8,5/1h[512:1],6h[512:1]/2,7b/3h[512:1],8h[512:1]/4b,1b/5h[512:1],2h[512:1]/6b,
{24}3,4,5,6,7,8,
{8}1,1,
{16}1,1,1,1,
{32}1,1,1,1,1,1,1,1,
{48}1,1,1,1,1,1,1^4[16:1],1,1,1,1,1,1^6[16:1],1,1,1,1,1,
{8}1b-5[16:1],4-1[16:1]*-7[16:1]/1,5-2[16:1]*-8[16:1]/1,4>5[8:1],5<4[32:3],,,
{64}5/1-5[8:1],6,7,8,15,2,3,4,5-1[8:1]/1,6,7,8,15,2,3,4,
{8}5bqq8[8:1]/1bqq4[8:1],,,,
{24}2/7h[24:2],,3h[24:1],6h[24:1],4h[24:1],5h[24:1],
{16}8b-6[16:1],1b-3[16:1],8-5[16:1],1-4[16:1],8-4[16:1],1-5[16:1],8-3[16:1],1-6[16:1],8<1[32:3],1,8,1,8,,
{8}4b/8b,
{24}73,84,15,
{48}2,3,4,5,6,7,
{32}1pp4[8:1]/8qq5[8:1],,18,,4^1[16:1]/5^8[16:1],45,45,45,
,,,,,,,,
4z8[32:3]/5s1[32:3],,45,,18,18,18,18,
,,,,
{64}2,7,2,7,2,7,2,7,
{48}1b/8b,,,18,27,36,
{16}45,27,
{48}1<3[10:1],8,2,
{32}7,3V15[32:3],6,
{24}2,
{48}7,1,,
{8},,
{24}46,36,26,26,27,28,
{64}3h[8:1]/7,6,5,4,,2,1,8,7h[8:1],4,5,6,,8,1,2,3h[8:1],8,1,2,,4,5,6,7h[8:1],2,1,8,,6,5,4,
{8}3b,
{24}17,26,35,46,37,28,
{48}1,8,2,7,3,,
{32}4/8b,,7,6,
{56}5,4,3,
{64}2,1,8,7,
{32}6-8[16:1],5,4,,6-1[16:1],,
{16},6-2[16:1],1h[16:1],6-3[16:1],2h[16:1],6,3h[16:1],6,4h[32:1],
{24}48,37,26,
{64}1h[64:7]/5h[64:7],,,,,,,,
8h[64:7]/4h[64:7],,,,,,,,
{64}7,6,5,4,3,2,1,8,
7,6,5,4,7/3>4[64:7],
{64}6/2<3[64:7],5/1<2[64:7],4/8<1[64:7],
{64}3b/7b<8[64:7],,,,,,,,
{24}8,7,6h[24:52],
{64},,,,,,,,
{8}7h[8:16],,,,,,,,,,,,,,,,,,
E
