&title=Scattered Rose
&artist=削除
&first=0
&des=yuzu
&lv_5=12+
&inote_5=(180)
{1},,
{8}3,4,5,6,5,4,3,2,1,8-4[8:1],,8,1,2,3,4,5h[2:1],,,,
6,5,4,3,2h[8:3],,,3,4,5,6,7,
8h[1:1]/1,,6z2[4:1],,6b,,,,1h[8:7],,3s7[4:1],,3b,,,{8}8,
{4}2q3[8:4]/7p6[8:4],,,,{16}45,,6,5,6,3,4,3,{8}8b-4[8:1],1b,,,
2b/6b,,7v4[8:1],4q3[4:1],,2h[4:1],,,
{32}1,2,{16}3h[8:1],,4h[16:3],,,5,,6h[16:3],,,5h[16:3],,,4,,
{8}36,,18,1-5[8:1]/8-6[8:1],,8b-4[8:1]/1b-3[8:1],,1b/8b,,,2b/7b,,
6,7,81,,2>4[8:1],4<6[8:1],6p8[4:1],7p5[8:3],,,,,
{16}2h[16:3],,,3h[16:3],,,4,,7h[16:3],,,6h[16:3],,,5,,
{8}2p4[4:1],3,4p3[8:3],5,,7,8,,7q5[4:1],6,5q6[8:3],4,,2,1,,
{8}54,4-1[8:1]/5-8[8:1],,54,,7-4[8:1]/8-3[8:1],61,78,,21,7-5[8:1]/4-8[8:1],,74,,61,,
81,8-5[8:1]/1-4[8:1],,18,,3-8[8:1]/4-7[8:1],25,34,,65,8-4[8:1]/4,,8,
{16}2,1,8,7,6,5,
{4}4h[4:1]/8>8[4:5],,3h[4:1],,2h[4:1],,1b,,
{8}45,45,45,45,{16}4,5,4,5,4z8[16:5],5s1[16:4],4,5,,,,,,,,,
{8}1b/8b,4b/5b,,,
2b>4[8:1],8>2[8:1],2,8pp4[8:3],,8/6h[4:1],,,
{32}5,6,7,,,,4q8[16:1],3,2,,,,4,,,,1,2,3,,,,8q4[16:1],7,6,,,,8,,,,
{8}6,5>2[8:1],6,5<8[8:1],,5pp1[8:3]*pp2[8:3],,5,,,,,8,6,2>5[8:1]/4,,21,
{16},7<4[16:1],8,,7q4[8:1],,,,7,,,,
56,,74,,,25,,,34,,25,,,74,,,65,,
{8}7p4[8:3],6,5,4p6[4:1],,2,1,,2q5[8:3],3,4,5q3[4:1],,7,8,,
{8}7b<5[8:1],1<7[8:1],7,1qq5[8:3],,1/3h[4:1],,,
{32}4,3,2,,,,5p1[16:1],6,7,,,,5,,,,8,7,6,,,,1p5[16:1],2,3,,,,1,,,,
{8}4h[4:1],,5,{24}4b/5b,36,27,,,,1b/8b,27,36,,,,
4b/5b,36,27,{8}1s5[8:1]/8z4[8:1],,1b/8b,,36,27,
1w5[8:1]/8,,1q3[8:4],,,,7,,1w5[8:1],,1p7[8:4],,,,3,,
1,,18,18,27,{16}3,4,3,,25,,6,5,74,,
,,18,,18,,18,,1,2,8,7,2,3,7,6,5p4[2:1]/4q5[2:1],,,,,,,,,,,,,,,,
2>4[8:1]/7<5[8:1],,,,,,,,4,3,2,1,8qq3[1:2]/4qq7[1:2],5,6,7,8b/4b,
