&title=℉
&artist=DJ Raisei
&first=0.04
&des_1=Zirco
&des_2=Zirco
&des_3=Zirco
&des_4=Zirco
&des_5=Zirco
&lv_5=14
&des_6=Zirco
&des_7=Zirco
&des=Zirco
&inote_5=(205){4},{8},,,,,,5h[4:1],
,,5h[4:1],,,{4}5,
{8}4h[4:1],,,4h[4:1],,,{4}4,
{8}6h[4:1],,,6h[4:1],,,{4}6,
{8}4h[4:1],,,4h[4:1],,,{4}4,
{8}5h[4:1],,,5h[4:1],,,{4}5,
{8}4h[4:1],,,4h[4:1],,,{4}4,
{8}6h[4:1],,,6h[4:1],,,{4}6,
{8}4h[4:1],,,4h[4:1],,,{4}4,
{8}4/6h[4:1],,,6h[4:1],,4,{4}6,
{8}6/4h[4:1],,,4h[4:1],,5,3,3,
4/6h[4:1],,,6h[4:1],,3,{4}6,
{8}5/3h[4:1],,,3h[4:1],,4,2,2,
3/5h[4:1],,,3/5h[4:1],,4,{4}6,
{8}6/4h[4:1],,,6/4h[4:1],,5,3,3,
3/5h[4:1],,,3/5h[4:1],,1,1/5h[1:1],1h[8:7],
,,,,,,,,{1}1-5[1:1],
8-6[4:3],
1-5[1:1],
8qq4[1:1],
1-3[4:3],
8-4[1:1],
1-3[4:3]*<1[4:7],
{8},,,,,,,,4h[8:5],
,,8-6[8:5],,,,,{4}1,
1>4[8:5],{8},,,,5h[8:5],
,,4-2[8:5],,,,,{4}8,
8<5[8:5],{8},,,,1h[8:3],
,,4-7[16:7],,2,,3h[8:3],
,,{4}8pp5[4:5],,,{1}4h[8:5],
{2}3pp2[8:5],{4}6,7,
{1}1/7qq4[1:1],
{2}1xh,5qq2[4:7],
{8},,7,7,,,,8,
{1}8xh,
5/4>6[4:7],
5xh,
{4}5<3[4:7],{8}4,4,,,,5,
{2}5xh,7,
{8}8<5[4:5],,,5,,4,,,{2}1xh,
2,
{4}4>1[4:5],{8}6,6,,6,,7,
8xh,,,,,7,,6,
6V48[4:5],,,4,,3,,,{4}1xh,
1,{8},2h[8:5],,,{1}4>6[4:5],
{4}Ch[2:1],,,1x-3[8:1],
1/5-7[8:1],5,{16}8x/4h[8:1],,,3/7h[8:1],,,{8}2/6,
{4}1-3[8:1]/5-7[8:1],5/1,{16}4x/8x-4[8:1],,,3,{8}8,2,
{4}6/2-8[8:1],2,{16}1x/5h[8:1],,,6/2h[8:1],,,{8}3/7,
{4}8-5[8:1]/4-1[8:1],4/8,{16}2x/6x,,,3,{8}5-7[8:1],1,
{4}5/1-3[8:1],1,{16}8x/4h[8:1],,,3/7h[8:1],,,{8}2/6,
{4}1-3[8:1]/5-7[8:1],5/1,{16}4x/8x-4[8:1],,,3,{8}8,2,
{4}7/2-8[8:1],2,{16}1x/5h[8:1],,,6/2h[8:1],,,{8}3/7,
{4}8-5[8:1]/4-1[8:1],4/8,{16}2x/6x,,,2/7,,1,8,1,
7-5[8:1],,,3,{8}7,2,{16}1x-3[12:1],,,1x-7[48:5],,,{8}1x,
4,{16}3,5,{8}3,2,{16}1x-6-2[4:1],,,4,,,{8}5,
{16}7x-4[8:1],,,3,{8}7,2,{16}1xh[8:1]/5h[8:1],,,3h[8:1]/7h[8:1],,,{8}1/8,
{4}1-5[8:1]/8-4[8:1],1/8,{16}3x,6,2,7,1,8,1,8,
2-4[8:1],,,6,{8}2,7,{16}8x-6[12:1],,,8x-2[48:5],,,{8}8x,
5,{16}6,4,{8}6,7,{16}8x-5-1[4:1],,,5,,,{8}3,
{16}2x-5[8:1],,,8,{8}2,7,{16}6h[8:1]/4xh[8:1],,,7h[8:1]/2h[8:1],,,{8}5/1,
{4}5-8[8:1]/1-4[8:1],5/1,{16}6,3,7,3,{32}8xh,7x,6x,5x,4x,3x,2x,1x,
{1}4b>3>2<1<8<7<6>5>4[8:31]`8b<7<6>5>4>3>2<1<8<8b[4:31],
,,,,,,,4h[1:1],
5<1[8:11],
2h[1:1],
8V64[4:5],
1-5[4:3],
1-5[4:3]*-5[4:3],
E1h[4:5],
{4},,E7,E3,
{1}Ch[2:7]/1p8[4:11],
{4},,,,,,,,,,1w5b[8:1],
1b,
3x-1[8:1]/7x-5[8:1],7x/3xv8[8:1],3/7-4[8:1],{8}7/1-5[8:1],2,
{4}7-1[8:1]/1V37[4:1],1/7<1[8:3],8h[8:1],6x,
5xw1[8:1],5,{8}3-5[8:1],2,3/8-4[8:1],7,
8-6[8:1],5,8,2,1-7[8:1]*-3[8:1],8,{4}1,
6x-8[8:1]/2x-4[8:1],2x/6xv1[8:1],6/2-5[8:1],{8}2/8-4[8:1],7,
{4}2-8[8:1]/8V62[4:1],8/2>8[8:3],1h[8:1],3x,
{8}4xw8[8:1],4,,,6-4[8:1],7,6/1-5[8:1],2,
1-3[8:1],4,1,6,8-4[8:1],{16}7,3,{8}8,1,
2-5[8:1]/6-1[8:1],7/3,{4}2/6,{8}3,{16}3,4,{8}2,1,
1-3[8:1],2,1/7-1[8:1],6,2V83[4:1]/7-5[8:1],4,{4}2/7,
{8}6-8[8:1],2,6-1[8:1],3,{4}6/4-2[8:1],{8}4/8,7,
6-4[8:1],6,6/1<3[4:1],2,{4}1/5,8,
{8}7-4[8:1]/3-8[8:1],3/7,{4}7/3,{8}6,{16}6,5,{8}7,8,
8-6[8:1],7,8/2-8[8:1],3,7V16[4:1]/2-4[8:1],5,{4}7/2,
{8}3v8[8:1],7,3-1[8:1],6,3,5-7[8:1]*-8[8:1],4,5b-3[8:1]*-2[8:1],
,5b-1[8:1],,5b,{16},,2/8,3/7,{4}6b/4bw8[8:1],
{1}4b,
{2}B7h[4:3]/B6h[4:3]/B2h[4:3]/B3h[4:3],Cfh[4:1],
{4}1x-5[8:1]/8x-4[8:1],8b<5[8:1]/1b>4[8:1],1b/8b,{8}2-8[8:1],8q4[8:1],
2,7,6<1b[8:1],5,{4}4-8[8:1]/6-4[8:1],6/4,
{8}6-1[8:1]/2v5[8:1],4/8,{4}6/2,{8}4-6[8:1],3,4/2-4[8:1],1,
2/8V61[4:1],6,8/3,4,5pp6[16:3],4,3,2,
2v5[8:1],5-3[8:1],2,8,7-5[8:1],2,7/3,1-3[8:1],
,1/5,8b,6/4,3/5,{16}2,1,{8}2,3/8,
{16}7-3b[8:1],1,5,3,{4}7b,8/1,{8}7-1[8:1],1p5[8:1],
7/2,3,3>8[8:1],6,{4}5-1[8:1]/3-5[8:1],3/5,
{8}3-8[8:1]/7v4[8:1],5/1,{4}3/7,{8}5-3[8:1],6,5/7-5[8:1],8,
7/1V38[4:1],3,1/6,5,4v2>3[16:3],5,6,7,
7v4[8:1],4-6[8:1],7/3,1,2-4v1[4:1],7,2/6,7,
8v5[8:1],5<7[8:1],8/4,2,3V51[4:1],8,3/6,7,
{4}8V64[4:1],{8}8/5,3,{4}2q6[8:1],{8}5/2-4[8:1],7-4[8:1],
2-8[8:1],7v2[8:1],2,7,{16}1x,1,1,1,{4}1bxw5b[8:1],
{64}1b,B1,Cf,B5/B4/B6,{4},{16},{8}4h[4:1]/6h[4:1],,,{4}3/5,
{8}5h[4:1]/3h[4:1],,,6h[4:1]/4h[4:1],,,{4}4/6,
{8}7h[4:1]/5h[4:1],,,6h[4:1]/4h[4:1],,,{4}6/4,
{8}3h[4:1]/5h[4:1],,,4h[4:1]/6h[4:1],,,6/4,7,
8h[4:1]/2h[4:1],,,3h[4:1]/5h[4:1],,,{4}5/3,
{8}6h[4:1]/4h[4:1],,,5h[4:1]/3h[4:1],,,5/3,2,
1h[4:1]/7h[4:1],,,6h[4:1]/4h[4:1],,,{4}6/4,
{2}3h[8:3]/5h[4:1],{4}4/6h[4:1],4,
{8}1h[4:1]/E8,,,E7,{4}2h[4:1],E6,
{8}3h[4:1]/B5,,,B7,{4}5h[4:1],E1,
{8}7h[4:1]/B1,,,B3,{4}8h[4:1],E5,
{8}1h[4:1]/B5,,,B7,{4}2h[4:1],E1,
{2}3h[4:1],4h[4:1],
5h[4:1],6h[4:1],
{4}3q4b[4:7],4,{2}5h[4:1],
{4}3,4,{2}5h[4:1],
E
