&title=万神纪
&artist=2017年拜年祭
&first=-0.92
&des=NPSlider
&lv_5=13+
&lv_6=14+
&inote_5=(166.02){1},,
{8}1/8h[8:14],1,,,,,2,2,,,,,1,1,1,,1h[16:26]/8,8,,,,,7,7-4-7[2:1],,,,,,,
{16}1,8,1,,1/8xh[8:14],,
{8}1,,,,,1,1,,2,2,,,,1,,
{8}4h[8:1]/5h[8:1],,,4h[8:1]/6h[8:1],,,4h[8:1]/3h[8:1],,,4h[8:1]/5h[8:1],,,7b/2b,,1b/8b,,
{8}34,,3,4,3,4,3h[2:2],,B7/E8/E7,,B1/E2/E1,,B5/E6/E5,,B7/E8/E7,,17,,1,7,1,7,1,,B5/B4,,1h[8:1],8,,1h[8:1],8,,65,,6,5,6,5,6h[2:2],,B2/E2/E3,,B8/E8/E1,,B4/E4/E5,,B2/E2/E3,,1-4[8:1],1,8-5[8:1],8,2b-5[8:1],,2b,,1bv3[8:1]/8bv6[8:1],,1b/8b,,4xh[8:1],,5xh[8:1],,
{8},,4-8-2[2:1],,4,,5,,6,,5h[2:1],,3,,2h[2:1],,,,8-5-2[2:1],,8,,1,,3,,3h[2:1],,4,,6h[2:1],,,,2-7v4[2:1],,2,,6,,5<1[4:1],,1>5[4:1],,5<1[4:1],,1,,,,1x-4[8:1]/7x,7x/8x,1x/8x,,2qq7>2[4:3]/7,,27,,,,,,,,
{8}5-8>2p5[8:5],,5,,4h[4:1],,,,4,,6-8[8:1],,6/4-2[8:1],,64,,6-1-3-7[8:5],,6,,4h[4:1],,,,4,,8-6[8:1],,8/2-4[8:1],,28,,7-3[4:1],,3V51[2:1]/7,,1,,1>5[8:3],,8,,8-2[8:1],,8/6x-4[8:1],,8/6x,,C,,2b,8b/2b,1bx-7[8:1]/3bx-5[8:1],,13,,8x,8xh[8:1],7,7h[8:1],6h[4:1],,5h[4:1],,4h[1:1],,B5/B6,,B7/B8,,B1/B2,,3h[1:1],,A8/E1,,A7/E8,,A6/E7,,7h[4:1],,8h[4:1],,1bh[4:1],,2bh[4:1],,3bh[1:1],,A7/E8/B7,,A6/E7/B6,,,,5-8q5[2:1],,6-2[4:1],,,,,,7-2<7[8:3]/3-6>3[8:3],,,,,,6hx[1:1],,2,3,3,4,5,,4,,8b<5b[8:1]/4b>1b[8:1],8b/4b,8b/4b,
{8},,,1-4[8:1],7-5[8:1],1,7,,4,7/3-8[8:1],4,3-6[8:1],6,3x,5,,5xh[8:1],,,4x>1[8:1],5,46,,,6-8-2[8:3],4,6,2,3,4,4,4h[2:1],5,,,6-8[8:1],
{8}2-4[8:1],6,2,,7,7,5,5-8[8:1],8,5,7,,7xh[8:1],,,7x<4[8:1],8,71,,,1-3-5[8:3],7,1,5,5,6,6h[2:1],2b,2b,,,
{8}2-4[8:1],8-5[8:1],2,8,,4,3/6-1[8:1],5,6-3[8:1],5,6,4,,5xh[8:1],,,5xs1[4:1],6,57,,,6,6h[2:1],4,3,2,1h[2:1],8,7,6h[4:1],,,6-2[8:1],1-5>1b[4:3],6,1,,6,6,7,7,8,8h[8:3],1-4[8:1],,1,8,,7z3[4:3]/8-6[8:1],,78,,,,,,,1-5[8:1],8,1,7-5[8:1],8,7,2-5[8:1],8,2,
(166.02){16}8x,7x,6x,5x,4x,3x,2x,1x,8x,7x,6x,5x,4x,3x,2x,1x,8x,7x,6x,5x,4x,3x,2x,1x,8x,7x,6x,5x,4x,3x,2x,,8x,1x,2x,3x,4x,5x,6x,7x,8x,1x,2x,3x,4x,5x,6x,7x,8x,1x,2x,3x,4x,5x,6x,7x,8x,1x,2x,3x,4x,5x,6x,7x,
{8}8hx[8:14],,B5,B6,B7,,B8,B1,B2,,C,,C,,C,,
{16}4,5,4,5,4,5,4,5,4,5,4,5,4>1>4[4:3],5,4,5,
{8}4,,,,,,,,5b/2b,,5h[2:1],8,1,2,3xh[4:1],4,5xh[4:1],6,4xh[4:1],3,5xh[4:1],6,4xh[4:1],3,,,4h[2:1],8,7,6,5,3,2b/1b,7,5,2b/3b,6,1,7b/8b,5,45,6,7,18,2,3,4h[4:1]/5h[4:1],,,,78,6,5,43,2,1,
{16}7bh[8:1]/8bh[8:1],,,6,5,,1bh[8:1]/2bh[8:1],,,3,4,,
{32}1bxp4p7p2p5p8[1:5]/8bx<8[1:4],2bx/7bx,3bx/6bx,4bx/5bx,
{8},
{1},,,,,
{8}1x-4[8:9],,1x/7,,7,,6,,5,5,,8h[8:3],,,1-4[8:12],,1/8,,8,,7,,8,,7,6h[8:1],,,5h[2:1],,,,4-1[8:9],,45,,5,,6,,7,7,,8h[8:3],,,4-1[8:10],,4b/8b,8,8,7,7,,6,,7,8,8,,,,7,6,5/1b,4,,3/2b,4,5,6,7,8/3b,1<8-5[4:1]*-4<5[4:1],,1b,,,6x,5x,4h[4:1]/7b,,,3/8b,2,1,8,7,6/3b,5,4,3h[8:3]/8b,,,7,8,1/7b,2,,6/3b,7,8,1,2,3/8b,4,,6/2b,7,,1,2,3h[4:1]/5b,,,3/1b,4,5,6,7,
{16}18,,3,4,3,,6,5,6,5,6,,
{8}1-4[8:1],7-5[8:1],1,7,,4,3-8[8:1],4,3-6[8:1]/6,6-8-2-4-6[2:1],6x/3x,,,5xh[8:1],,,4x>1[8:1],5,46,,,6-8-2[8:3],4,6,2x-7-5-8[8:4],2,3,3,4,4,,,3,6,A5f/A4f/D5f/E5f/B5f/B4f/Cf/B7f/B2f/A7f/A2f/E8f/E2f/B8f/B1f/E1f/A8f/A1f/D1f/D2f/D8f,,,7,7,5,5-8[8:1],8-6-2-4[2:1],85,,,7xh[8:1],,,7x<4[8:1],8,71,,,1-3-5[8:3],7,1,5x-8-4[8:4],5,6,6,7b,7b,,,
{8}8-5[8:1],2-4[8:1],8,2,,5,3-8[8:1],5,3-6[8:1],6-1-5-3[2:1],3x/6x,,,6xh[8:1],,,5-8[4:1]*q4[4:1],3,5,,,6,28,5,17,6,12,34,56,78,,,4-1[8:1],8-4<8b[4:3],4,8,,2,2,3,2,2,1h[8:3],8-5[8:1],,8,1,,8>1-6-3[2:1]/7z3[2:1],,78,,,,,,,1,47,5,65,4,36,4,4h[8:1]/5h[8:1],
{32},,,,5x/4x,3x/6x,2x/7x,8x/1xh[32:28],,,,,,,,,,,,,,,,,,,,,,,,,,,,,2x,3x,4x,5x,6x,7x,8x,1x,2x,3x,4x,5x,6x,7x,8x,1x,2x,3x,4x,5x,6x,7x,8x,1x,2x,3x,4x,5x,6x,7x,8x,1x,2bx/B2,3bx/B3,4bx/B4,5bx/B5,6bx/B6,7bx/B7,8bx/B8,1bx/B1,2bx/B2,3bx/B3,4bx/B4,5bx/B5,6bx/B6,7bx/B7,8bx/B8,1bx/B1,2bx/B2,3bx/B3,4bx/B4,5bx/B5,6bx/B6,7bx/B7,8bx/B8,1bx/B1,2bx/B2,3bx/B3,4bx/B4,5bx/B5,6bx/B6,7bx/B7,8bx/B8,1bx/B1,
{8}2bx/B2,,7,1,8,2,7,,B5/B4,,18,27,,18,27,,34,,5,3,4,2,5h[2:2],,
{32}B1,B2,E3,,,,,,E4,B4,B5,,,,,,E7,B7,B8,,,,,,B1,B2,E3,,,,,,
{8}5-8[8:1],5,4-1[8:1],4,6b-1[8:1],,6b/4b-7[8:1],,4bv2[8:1]/8bv2[8:1],,8bpp4b[4:10]/4bpp8b[4:10],,
&inote_6=(166.02){1},,
{8}18,18,2,3,4,5,18,18,,,1-6[8:1],,1-4[8:1]/8,8,1/8,,18,18,7,6,5,4,7-4-7[4:1]/8-3[8:1],78,,,2x,1x-5[8:1],,1,
{16}8,,,,18,,
{8}18,2,3,4,5,18,18,,2-5-2[4:1]/1-6[8:1],21,,,,1,,
{8}45,4,4,46,6,6,62,2,2,28,8,8,
{32}8x/1bxw5[8:1],2,3,4,5,6,7,8,1,,,,,,,,
{8}3,3,2,2,1,1,7x-5[8:1]/8x-2[8:1],,7x-3[8:1]/8x-4[8:1],,7x-5[8:1]/8x-2[8:1],,7x-3[8:1]/8x-4[8:1],,7/8>3[8:5],,7,7,6,6,5,5,4,,1x/8x,,B4/B5,1x/8x,,B4/B5,1x/8x<5[8:5],,38,3,2,2,1,1,4x-1[8:1]/1,,1x-6[8:1]/4x,,6x-3[8:1]/1x,,3x-1[8:1]/6x,,3x/1x,,8-4[8:1],1-5[8:1],8V64[8:1],1,8V62[8:1],,,,1bv3[8:1]/8bv6[8:1],,1b/8b,,
{16}45,,4,5,4,5,4,,
{8}45,,4h[8:1]/5,5,5h[8:1]/3,3,3h[1:1],,5<8[8:1],,5-1[8:1],,5>2[8:1],,5,,C,,5h[8:1]/4,4,4h[8:1]/6,6,6h[1:1],,4>1[8:1],,4-8[8:1],,4<7[8:1],,4,,C,,2h[8:1]/1,1,1h[8:1]/3,3,4,,
{32}4,5,6,7,8,1,2,3,4,5,6,7,8,1,2,3-7[8:1]*-7[8:1],4,5,6,7,8,1,2,3,
{8},,2V86[8:1]*<6[8:1],,2V46[8:1]*>6[8:1],,2w6[8:1],,,,48,73,4V28b[4:1]/8V64b[4:1],73,4-7b[8:1]/8-3b[8:1],,,,
{8}1x-3[8:1],8,1,8,1-3[8:1],8,1,8,1-3[8:1],8,1v6[8:1],8,1-3[8:1],8,1,8,1v4[8:1],8h,1,8h,1v4[8:1],8h,1,8h,1v4[8:1],8h,1-5[8:1],8h,1v4[8:1],8h,1,8h,1-4[8:1],8h[16:1],1,8h[16:1],1-4[8:1],8h[16:1],1,8h[16:1],1-4[8:1],8h[16:1],1>2-5[8:1],8h[16:1],1-4[8:1],8h[16:1],1,,5,,3x<7[4:1],5<1[4:1],7>3[4:1],,3V17[2:1],,4,4,5,5,6,,6h[4:1],,
{16}1x,2,3,4,5x/6x,7,8,1,2x/6x,5,4,3,2x/8x,7,6,5,4x/3x,2,1,8,7x/3x,4,5,6,7x/2x,3,4,5,6x/8x,7,6,5,4x/3x,2,1,8,7x/4x,5,6,7,8x/1bx,2bx,3bx,4bx,5bx,6bx,7bx,8bx,5/1bx,6/2bx,7/3bx,8/4bx,1/5bx-1-5[2:1],2,3,4,5,,,,,,,,8x,1,2,3,4x/5x,6,7,8,1x/3x,4,5,6,7x/4x,5,6,7,8x-6-4p8b[8:3]/4x,3,2,1,8x/6x,,,,
{32}5x,,,,,,,,
{8}8x-5[4:1],8,8/5-2-7[2:1],7,6,7,6,,4h[8:1],,7bx>2[8:1]/3bx,8bx/4bx,
{32}7bx/3bx,4x,5x,6x,
{8},,,1-3[8:1],8,
{32}81,7,6,5,
{8}4-1[8:1],,4-8-5-2[2:1],3h[8:1],4,3,2,1,8x>6[8:2],,8/7h[8:1],,,8<5[8:1],1,
{32}81,2,3,4,,,,,
{8},5-1[8:1],1,5-8[8:1],8<3[2:1],5,3,2,1,1,
{8},,8-6[8:1],1,
{32}18,2,3,4,
{8}5-8[8:1],,5-1-4-7[2:1],6h[8:1],5,6,7,8,1x<3[8:2],,1/2h[8:1],,,1>4[8:1],8,
{32}18,7,6,5,,,,,
{8},4-8[8:1],8,4-1[8:1],1>6[2:1],4,6,7,8,1,,,
{8}4>1[96:11],5xh[8:3],
{32}4,,,,8,7,6,,
{8}4x-1[8:1],7,4qq1[2:1],5,4,6,7,8x-3[8:1],,8,
{8}1,,4h[8:1]/1s5[4:1],2h[8:1],1,,,3-7[8:1],5,3-5[8:1],5>8[2:1],3,7,6,5,4,,
{8},4<7[96:11],3xh[8:3],
{32}4,,,,8,1,2,,
{8}4x-7[8:1],1,4pp7[2:1],3,4,2,1,8x-5[8:1],,8,7,,2<2[8:5]*qq5b[8:5]/7,27,2,,,,,,,8-5[8:1],2,8,4-1[8:1],6,4,7<5[8:1],2,7,
(166.02){16}1,2,3,4,8,7,6,5,1,2,3,4,8,7,6,5,1,2,7,6,1,2,7,6,2,3,6,5,2,3,6,5,1,2,3,4,2,3,4,5,8,7,6,5,1,8,7,6,1,2,8,7,2,3,7,6,3,4,6,5,2,3,7,6,
{8}2hx[1:1],,7,7,8b,,6,6,5h[1:1],,3,,3,,3,,
{16}3,4,3,4,2,5,2,5,1,6,1,6,8,7,8,7,
{16}8,1,2,3,4,5,6,7,8bh[4:1]/4bh[4:1],,,,,,,,
{8}1b/5b,,26,3,4,5,46,3,2,1,68,5,
{16}4,8,4,,
{8}37,4,3b/6b,,25,1,8,7,46,5,4b<7[8:1],3,2,1b>4[8:1],8,7,6bh[8:1],5,
{16}4,,1,8,2,,45,,8,1,7,,4b-1b[8:1]/5b-8b[8:1],,,,4b/5b,,,,27,,3,,4,,5,,6/3h[8:1],,7,,
{32}7b/3b,6b/2b,5b/1b,,,4x,,4x,,,,,5b/1b,6b/2b,7b/3b,,,4x,,4x,,,,,7bp2p5p8p3>7[1:5]/3b,6b/2b,5b/1b,,,,,,
{1},C,Ch[16:4],C,Ch[16:4],
{4}5v7>2[4:5]*v7>2[4:5],,,,,,,4v2<7[4:7]*v2<7[4:7],,,,,,,,,5-8-5[4:5]*-8-5[4:5],,,,,,,4v2<7[4:5]*v2<7[4:5],,,,,,,,,
{8}B2/B7,,,B3/B6,,,,,B2/B7,,,B3/B6,,,1x,,B2/B7,,,B3/B6,,,,,B2/B7,,,B3/B6,,,1x,,1/B7,2,3,4/B6,,,,,8/B2,7,6,5/B3,,,1x,,18,27,36,45,,,,,
{16}45,,2,4,3,,6,5,6,5,6,,
{8}1-3[8:1],8,
{32}81,7,6,5,
{8}4-1[8:1],,4-8-6[4:1],3h[8:1],4,3-7-5[4:1],2,3,8x>6[8:2],,8/4hx[8:1],,,8<5[8:1],1,
{32}81,2,3,4,,,,,
{8},5v2[8:1],3,5b-8[8:1],3v8[8:1],5b,3b-1[8:1],5-8[8:1],3b,5b,
{8},,8-6[8:1],1,
{32}18,2,3,4,
{8}5-8[8:1],,5-1-3[4:1],6h[8:1],5,6-2-5[4:1],7,6,1x<3[8:2],,1/6hx[8:1],,,1>4[8:1],8,
{32}18,7,6,5,,,,,
{8},4v7[8:1],6,4b-1[8:1],6v1[8:1],4b,6b-8[8:1],4-1[8:1],6b,4b,
{8},,4>1[8:1],8x,
{32}8bx,7,6,5,8,7,6,5,
{8}4-1[8:1],7,4-7-3[4:1],8,4,1-5[8:1],8,1pp5[8:2],,1,
{8}8,,/8z4[8:1]*-5[8:1],3,8,,,4-8[8:1],6,4-6[8:1],6>1[2:1],4,8,7,6,5h[4:1],,
{8},5<8[8:1],1x,
{32}1bx,2,3,4,1,2,3,4,
{8}5-1[8:1],4,5-8-6[4:1],3,5,1-5[8:1],2,1qq5[8:2],,1,,,1-7<6qq4v1[4:3],,1,,,8-5[8:1],8,,,2,18,7,36,5,12,4,26,,
{24}2,6,2,6,2,6,2,6,2,6,2,6,2,6,2,6,2,6,2,6,2,6,2,6,
{32}1b,8b,7b,6b,5b,4b,3b,2b,
{8}1bxh[4:7],,6,,,,A8f/E8f/E1f/B8f,,A6f/E6f/E7f/B6f,,A4f/E4f/E5f/B4f,,A8f/E8f/E1f/B8f,,
{8}6,6,4,4,5,5,3,,8x/7x,,34,8x/7x,,34,8x/7x<4[8:5],,17,1,2,2,3,3,5x-3[8:1]/6x-8[8:1],,5x-1[8:1]/6x-2[8:1],,5x-3[8:1]/6x-8[8:1],,5x-1[8:1]/6x-2[8:1],,56,,8-6[8:1],5,8,5,
{16}5,4,3,2,1x-6[8:1]/5x-2[8:1],8,7,6,1-5b[8:1]/5-1b[8:1],,,,
{4}1x>1-3-5-7-1[4:10]/5x,,,,,,,,,,,2b,
