&title=Like the Wind [Reborn][DX]
&artist=sampling masters MEGA「パワードリフト」
&first=0
&des=桂花君
&lv_5=13+
&inote_5=(200){1},
{16}1x,8,1,8,1x,8,1,8,1x,8,1,8,1x,8,1,8,
{4}1x-5[16:1],1x>5[8:1]*<5[8:1],1b,,
{16}75,,,,24,,,,8h[8:4]/1x,,7x,6x,5x,4x,3x,2x,
{16}1x-5[8:1],,,5,,,6,,7-4[8:1],,,,4,,
{4}3>8[4:1],8<5[4:1],5>2[4:1],2<7[4:1],7<4[4:1],4>1[4:1],{8}B8,C,B4,,,
{16}74,,6,5,6,,,,25,,3,4,3,,,,
{32}6/E3,B2,B1,E1,,,,,3/E7,B7,B8,E1,,,,,6/E3,B2,B1,E1,,,,,3/E7,B7,B8,E1,,,,,
{16}24,,,,75,,,,1h[8:4]/8x,,2x,3x,4x,5x,6x,7x,
{16}8x-4[8:1],,,4,,,3,,2-5[8:1],,,,5,,
{4}6<1[4:1],1>4[4:1],4<7[4:1],7>2[4:1],2>5[4:1],5<8[4:1],8,
{8}2,3,4h[4:1],,6,4>1[4:1],,6,7,7,,
{32}2,,,,,,,,2,E3,B3,B4,E5,6,,,,,,,,6,E7,B7,B8,E1,,,4,,,,
{4}3-8[8:1],6-1[8:1],2-5[8:1],6,
{16}4x,5x,4x,5x,4x,5x,4x,5x,4x,5x,4x,5x,4bx,,,,
{8}25,3,25,,74,6,74,7>2[4:1],,2>5[4:1],,5<8[4:1],,8,,
{8}2,35,4,35,,46,5,46,4>1[8:1]/6,,7,6,5<8[8:1],,2,3,4,
{8}56,7,56,,34,2,34,3<6[4:1],,6<1[4:1],,1>4[4:1],,4,,
{8}6,6h[8:2]/5h[8:2],,,,34,,34,2>5[8:1]/5<8[8:1],,,,,Cf,,,4,
{8}74,6,74,,25,3,25,2<7[4:1],,7<4[4:1],,4>1[4:1],,1,,
{8}7,64,5,64,,53,4,53,5<8[8:1]/3,,2,3,4>1[8:1],,7,6,5,
{8}43,2,43,,65,7,65,6>3[4:1],,3>8[4:1],,8<5[4:1],,5,,,
{8}3-1[16:1]/7-5[16:1],,,,26,,,1h[4:1]/5h[4:1],,
{32}E2/E6,B2/B6,B7/B3,B8/B4,B1/B5,E2/E6,A2/A6f,,,,,,,,,,,,,,,,,,,,,,
{16}6,5,6,,3,4,3,,6,5,6,,71,,71,,3,4,3,,6,5,6,,3,4,3,,28,,28,,
{16}6,5,6,5,7bx,,7bx,,3,4,3,4,2bx,,2bx,,
{8}54,3,45,6,5-1[16:1]/4-8[16:1],,Cf,,
{16}3,4,2,,6,5,7,,3,4,2,,17,,17,,6,5,7,,3,4,2,,6,5,7,,82,,82,,
{16}3,4,3,4,2bx/5bx,,2bx/5bx,,6,5,6,5,7bx/4bx,,7bx/4bx,,
{8}45,6,54,3,45,,Cf/B2/B3/B6/B7/E3/E7,,
{8}6-4-7[4:1],,3,2,1-3-8[4:1],,5,6,7-5-8[16:5],7,4-1[16:1],,4,,2x/7x,,,
{8}1bs5b[4:1],1b,5b,5b,,6b,7b,8b,8b-4b[8:1],,8b/4b,3b,,2b/6b,,
{8}1hx[8:7],,8x,8x,7x,7x,6x,6x,5xh[8:7],,4x,4x,3x,3x,2x,2x,
{8}1x,8x,7x,6x,5x,4x,3x,2x,1bs5[2:1],,,,,,,,
{4}26,B3/A3/B5/A5,73,B6/A6/B4/A4,28,B3/A3/B5/A5,71,B6/A6/B4/A4,
{8}27,2h[8:2]/7h[8:2],,,5h[8:2]/4h[8:2],,,E8/B7/B6/E6f/B5/B4/E4,,,,,
{8}75,64,53,4-6-8[2:1]/2-4b[16:1],,2x,,,1b,,2,2,,3,24,35,,
{8}7-5b[16:1]/5-3qq1[2:1],,7x,,,7b,,7,6,5,4hxb[8:1],,,,,
{8}24,35,46,5-2b[8:1]/7pp8[2:1],,5x,,,3b,3,4,5,,,27,45,,4qq1[1:1]/5pp8[1:1],,45,
{1},
{8},,,,45,63,,63,
{8}8-4[8:1]/2,,2/8b,,1-5[8:1]/7,,7/1b,,8-5[8:1]/2,,2/8b,,1-4[8:1]/7,,7/1b,,
{8}8<5[8:1]/2,,2/8b,,1>4[8:1]/7,,7/1b,,8-4[8:1]/2-4[8:1],,2/8b,,1-5[8:1]/7-5[8:1],,7/1b,,
{8}1-5[8:1]/2-4[8:1],,2/1b,,8-4[8:1]/7-5[8:1],,7/8b,,8-4[8:1]/1-3[8:1],,1/8b,,1-5[8:1]/8-6[8:1],,8/1b,,
{4}1>5[4:1],5<1[4:1],1>1[2:1],5,1>1[2:1],C,1>4[16:3],Cf,
{32}5x,6x,7x,8x,1x,2x,3x,4x,5x,6x,7x,8x,1x,2x,3x,4x,
{32}5x,6x,7x,8x,1x,2x,3x,4x,5x,6x,7x,8x,1x,2x,3x,4x,5x,6x,7x,8bx/Cf,,,,,,,,,,,,,,,,,,,,,
{8},5x/4x-6-3[8:3],,4hx[8:3]/5x,,,,,,7x-1-5[8:3]/1x,,7x/1x,,,3xh[8:2],,,
{8}2x-4-6[8:3]/4x,,4x/2xh[8:3],,,,,,7x-5q1[8:3]/5x,,7x/5x,,,2xh[8:2],,
{8},2x-7v1[8:3]/4xh[8:3],,,,,,,,7x-4p6[8:4]/4x,,7x/4x,,,2xh[8:2],,,
{8}1x>4[8:3]/8x,,1xh[8:3]/8x,,,,,,7xh[96:1]/4xh[96:1],,7xh[96:1]/4xh[96:1],,,2hx[8:2]/5hx[8:2],,,,
{8}2x/5x,3,4,3,74,6,5,28,1,74,36,5,17,17,36,36,
{8}1b/5,2,4,2,3b/7,4,6,4,1b/5,4,2b/6,5,3b/6,5,7/4b,3,
{8}25,1,7,1,73,8,2,16,3,74,25,8,12,12,74,74,
{8}35,2,4,2,74,5,2,18,7,64,64,3,71,35,24,68,
{8}1x,2x,3x,4x,5x,6x,7x,8x,{16}1x,2x,3x,4x,5x,6x,7x,8x,
{32}1x,2x,3x,4x,5x,6x,7x,8x,1x,2x,3x,4xz8[1:1],5x,6x,7x,8x,
