&title=Aci Sevda(苦命鴛鴦)
&artist=Abit-Official
&first=0
&des=What a pair of
&lv_5=12
&inote_5=(96)
{1},,
{8}3,4,6p4[4:1],5,3,,,C,
{8}3,4,6pp5[4:1],5,3,,,C,
{8}5,6,3q5[4:1],4,6,,,C,
{8}5,6,3qq4[4:1],4,6,,,C,
{8}3,4,6pp5[4:1],7,4,,,C,
{8}3,4,6pp4[4:1],7,4,,,C,
{8}6,5,4h[8:1],7,6,5,4h[8:1],7,
{8}3,4,5,6h[4:1],2,3,4,5/6,
{8}7b<4[8:1],7,8,1,2>5[8:1],2,1,8,
{8}7p3[8:1],7,8,1,2q6[8:1],2,1,7,
{8}6-1[8:1],6,5,4,3-8[8:1],3,4,5,
{8}6<1[8:1],6,5,4,3>8[8:1],3,4,6,
{8}7-4[8:1],7,8,1,2-5[8:1],2,1,8,
{8}7<4[8:1],7,8,1,2>5[8:1],2,1,7,
{8}6-1[8:1],5,6,4,2-5[8:1],1,2,8,
{8}7-3[8:1],4,7,1,1-5[8:1],5-1[8:1],6,7,
{8}8b,8,7/4,3,2,2,1/8,7,
{8}6,6,5/3,2,1,1,8/6,5,
{8}4,4,1/3,2,3,3,4/6,7,
{8}8,8,1/2,3,4,4,5/7,8,
{8}7h[4:1],4,1,3,2h[4:1],5,8,7,
{8}6h[4:1],4,1,2,3h[4:1],5,8,6,
{8}7h[4:1],5,4,3,2h[4:1],8,7qq5qq3[8:7],6,
{8}5,,,,,,,,
{8}3V51[4:1],5,8,7,6V48[4:1],1,4,3,
{8}2V48[4:1],8,5,6,7V51[4:1],4,1,2,
{8}3V15[4:1],5,8,7,6V84[4:1],3,8,1,
{8}2V84[4:1],8,5,6,7V15[4:1],1,2,3,
{8}2-5-1[4:1],5,8,7,7-4-8[4:1],4,1,2,
{8}3-8-4[4:1],8,7,6,6-1-5[4:1],1,2,3,
{8}2p6q3[4:1],6,8,7,7q3p6[4:1],3,1>3-7<5v8[8:7],8,
{8},,,,,,,,
{8}3v1>2-4[2:1]/5,2,3/6pp4[4:1],5,6,,,C,
{8}2qq4[2:1]/5,3,5pp4[4:1]/2,6,5,,,C,
{8}3qq4[2:1]/5,2,3/4pp4[4:1],5,4,,,C,
{8}7/4qq4[2:1],3,4/6-4[4:1],7,6,,,C,
{8}2v4[2:1]/5,3,2/6-4[4:1],7,6,,,C,
{8}2-4[2:1]/5,1,2/6,7,6h[8:3],,,C,
{8}3,4h[4:1],B5,6x,3,4h[4:1],B5,6x,
{8}2xh[4:1]/8x,,6xh[4:1],,4xh[2:1],,,,
{8}7b<4[8:1],7,8,1,2<7[8:1],2,3,4,
{8}5>2[8:1],5,6,7,8<5[8:1],5<8[8:1],4,3,
{8}2>5[8:1],2,1,8,7>2[8:1],7,6,5,
{8}4<7[8:1],4,3,2,1>4[8:1],4>1[8:1],5,6,
{8}7-4[8:1],7,8,1,2-7[8:1],2,3,4,
{8}5-2[8:1],5,6,7,8-5[8:1],5-8[8:1],4,3,
{8}2-5[8:1],5,2,7,6-3[8:1],3,6,1,
{8}2-6[8:1],5,2,8,7<4[8:1],4-8[8:1],3,2,
{8}1h[8:1],8,6h[8:1],3,2h[8:1],7,5h[8:1],4,
{8}3h[8:1],7,8h[8:1],2,1h[8:1],6,5h[8:1],B4`B3,
{8}8h[8:1],1,3h[8:1],6,7h[8:1],2,4h[8:1],5,
{8}6h[8:1],2,1h[8:1],7,8h[8:1],3,4h[8:1],B6`B5,
{8}1h[4:1],8,8h[4:1],2,2h[4:1],7,7h[4:1],3,
{8}3h[4:1],6,6h[4:1],4,4h[4:1],5,5h[8:1],A3`D4,
{8}7,7h[4:1],2,2h[4:1],6,6h[4:1],3,3h[4:1],
{8}5,5h[4:1],4qq2q6[8:3],4,,,,,
{8}8-4-8[4:1],8,4x,A3,2-6-2[4:1],2,5x,A6,
{8}7-3-7[4:1],7,3x,A2,1-5-1[4:1],1,8x,A7,
{8}6-2-6[4:1],6,2x,A3,4-8-4[4:1],4,5x,A6,
{8}5-1-5[4:1],5,1x,A2,3-7-3[4:1],3,8x,A7,
{8}6-3-6[4:1],6,4x,A3,2-5-2[4:1],2,5x,A6,
{8}7-4-7[4:1],7,1x,A2,3-6-3[4:1],3,8x,A7,
{8}8V64[4:1],8,4xh[8:1],,2V46[4:1],2,6xh[8:1],,
{8}8xh[4:1],5x,4x>2pp4<7qq5p8^1[2:3],7x,,,,,,
{8},,,,,,,,
