&title=共感覚おばけ(Exit From a Loop of Regret)
&artist=ササノマリイ
&first=0
&des=KuSA
&lv_5=12
&inote_5=(92)
{1},
{8}4h[4:1],,,,4h[4:1],,,,3h[4:1],,,,3h[4:1],,,,
4h[4:1]/5<7[8:1],,,,5>3[8:1]/4h[4:1],,,,3h[4:1]/4<7[8:1],,,,
3h[8:1]/5-1[12:1],4,7/5,,
{24}7b/3b,,,6,,6,5,,5,8-4[8:1],,,4-1[8:1],,,1-6[8:1],,,2,,,3,,,
4,,5,3,,3,1,,1,4,,4,{16}7p3[8:1],,,8,7/1,,2,,
{24}2/6,,,3,,3,4,,4,1-5[8:1],,,5-8[8:1],,,8-3[8:1],,,7,,,6,,,
5,,4,6,,6,8,,8,5,,5,{16}2q6[8:1],,,1,2/8,1,,,
{8}8h[2:1],7,6,5,4-8[8:1],7,6,5,4-8[8:1],1,2,3,4-8[8:1],5,
6p4[2:1],,,,1p7[2:1],,,,4p2[2:1],,,,7p5[2:1],,,,
3h[8:1],,1h[2:1],2,3,4,5-8[8:1],4,3,2,1-4[8:1],8,7,6,5-8[8:1]/1-4[8:1],,
1pp6[2:1],,,,7pp4[2:1],,,,3qq6[2:1],,,,,,7>4[6:1],,2-6[12:1],,2b/5b-1[12:1],
4-2[12:1],5,4,8-4[12:1],6-1[12:1],8,6,{16}4,,3/4,2/5,,5/6,{8}4/7-4[12:1],3-7[12:1],
7,3-1[12:1],,3-7[12:1]/6-4[12:1],5,3-1[12:1]/6,,3v8[12:1]/7v4[12:1],6,7/3-1[12:1],,
3-7[12:1]/6-4[12:1],5,6/3-1[12:1],,3/8z4[8:1],,1b/8b,,6/1-4[12:1],8-5[12:1],1,8,
3-6[8:1],6>3[8:1],7,8,1,{16}1/2,3/8,,8/7,{8}1>4[12:1]/6,6-2[12:1],1,
6-8[12:1],,6-2[12:1]/3-5[12:1],4,6-8[12:1]/3,,6v1[12:1]/2v5[12:1],3,2/6-8[12:1],,
6/4-2[12:1],,8-6[12:1]/4,,8/5,4,6v8[12:1]/3v1[12:1],,3bq4[4:5]/6bp4[4:5],,
{1},
{8},,,,,,5h[4:1],,,,5h[4:1],,,,6h[4:1],,,,6h[4:1],,,2,3h[4:1]/7s3[2:1],,,4,4h[8:11],,
,5,6,7,8,1s5[4:1],,,,,2z6[2:1]/6h[4:1],,,8,8h[2:1],,,7,6,5v8[8:3],5v2[8:3],,,,,,
5h[4:1]/4>2[8:1],,,,5h[4:1]/4<6[8:1],,,,6h[4:1]/5>2[8:1],,,,6h[4:1]/2<7[8:1],,,,
7h[4:1]/5<8[8:1],,,,7h[4:1]/1>4[8:1],,,,5>1[4:1]/8,,1<5[4:1],,5p8[6:1],,7-3[12:1],,7b/1b-5[12:1],2-6[12:1],1,2,4>1[12:1],5p6[8:1],4,5,1,{16}
1/8,2/7,,3/4,{8}2-5[12:1]/5,8-3[12:1],2,8-6[12:1],,8-4[12:1]/3-1[12:1],4,3/8-6[12:1],
,8v5[12:1]/4v1[12:1],5,4/8-6[12:1],,8-4[12:1]/3-1[12:1],4,3/8-6[12:1],,4z8[8:1]/8,,
5b/4b,,8-5[12:1]/3,1-4[12:1],8,1,6-3[8:1],3<6[8:1],2,1,8,{16}8/7,1/6,,5/4,
{8}3/6qq4[12:1],1-5[12:1],6,1-3[12:1],,1-5[12:1]/6-8[12:1],5,6/1-3[12:1],,
1v4[12:1]/5v8[12:1],4,1-3[12:1]/5,,1-5[12:1]/6-1[12:1],5,6/1<6[12:1]*>4[12:1],,1w5[8:1],,1,,
{24}2b/8b,,,6/5,,4,5/3,,3,4/2-6[8:1],,,6-1[8:1],,,1-4[8:1],,,8,,,7,,,
6,,6,4,,4,2,,2,8-4[12:1],,,1-5[12:1],,,8-3[12:1],,,1,,,8,,,4,,4,3/5,,5,4/6,,
6,7-3[8:1]/5,,,3-8[8:1],,,8-5[8:1],,,1,,,2,,,
3,,3,5,,5,7,,7,1,,1,{16}3p7[8:1],,,4,5w1[12:1]/3,4,,,5b,,
