&title=grandnebula
&artist=Aoi
&first=0,071
&des=Zenahv
&lv_5=14+
&des_5=Zenahv
&inote_5=
(220){4},,,,,,,,,,,1-6[8:1]*-4[8:1],
{1}1,
{16},,,,,,,,,,,,,,,,2/C,
,,7/C,,,,,,,,,2,1,2,1,
{4}2,{16}7,8,7,8,{2}7x<3[24:47],
{4}2h[8:1],2h[8:1],2h[8:1],2h[8:1],
2h[8:1],2h[8:1],{2}2h[8:1],
{6}7b/C,3bx/C,8bx/C,4b/C,7bx/C,3bx/C,
{4}6b/C,{16}5,4,5,4,5,4,3,2,1,8<2[16:47],,,,,,,{4}1,
1,1,
1,1,1,1,
1,1,1,1,
{16}E8,B7,B6,E6,E2,B2,B3,E4,4x,5,4x,5,4x,5,,,{8}7/5,
7/5,4/6x,6/4x,5/3,3x/5,4/2,4/2,
3/1,3/1,8/2,8/2,1/7x,7/1,8/6,8/6,
{16},1,1,1,1,1,1,1,{24}1,2,3,4,8,7,6,5,1,2,3,4h[24:19],
,,,,,,,,,,,,,,,,,,{4}C,
{8}4,4,{16}4,5,{8}4,4,{16}4,5,{8}4,4,
{16}4,5,,5,,5,,5,4,5,,5,,5,{48},,,,,,,,{24}6/4h[12:1],
7,8,,,,,,,8/4h[12:1],7,{8}6,4,4,4,
4,{16}7,6,{8}7,3,{16}7,6,7,{48}6,A5,,{24}D5,A4,{6}D4,
{8}8,8,{16}8,1,{8}8,8,{16}8,1,{8}8,{16}8,1,
{8}8,{16}8,1,{8}8,{16}8,1,{8}8,8,{16}8/A3,A4,{8}8/A5,
8,{16}8,2,{8}8,8,{16}8,1,{8}8,8,{16}8,1,
8,1,8,1,8,1,{8}8,{4}8-4[8:1],8b,
{16}1,2,3,4,8,7,6,5,1,2,3,4,8,7,6,5,
4,3,2,1,5,6,7,8,1,2,3,4,5b,4b,5b,4b,
5b,4x/3x,,2x,{8}1x/8x,{16}7x,6x/5x,,4x,{8}3x/2x,{16}1x,8x/7x,6x,5h[16:17],
,,{8}B2/B3/E3,E5,B6/E7/B7,E1,B2/B3/E3,,,2,
{16}2,3,{8}2,2,{16}2/7,6,{8}7,{16}7,6,{8}7,
7/4,4,{16}4,5,4,5,{8}4,3,3,3,
{16}3,4,3,5,3,6,3,7,3,8,3,1,{8}3,3,
{1}1w5[2:1],
{4}2h[16:1]/C,6h[16:1]/C,1h[16:1]/C,7h[16:1]/C,
3h[16:1]/C,{8}5,5,,5,{4}5,
2h[1:4],6,3,7,
{16}1,8,{8}7,{4}4,8,6,
{16}1,8,{8}7,{4}3,6,1,
{16}1,8,{8}7,{4}4,4,7,
{16}7,,,4,5,4,,6,5,6,,1,8,1,{8}8,
2,7,{4}7,{16}8,1,8,1,{4}8-3[12:1],
8,5h[8:1]/4h[8:1],6h[8:1]/3h[8:1],7h[8:1]/2h[8:1],
{24}1b/8b,2/7,6/3,5/4/E5/E6/E4,,,,,,,,,{4}4/3,7/8,
1/2,5/4,1/8,4>7>4[1:1],
4,5,4,5,
{8}6,6,6,6,6/3,3,3,3,
3/7,7,7,7,7/1,{16}1,6h,1,6,1,6h,
1,7,1,8h,1,1,1,1h,1,1,1,1h,{24}E8,E7,{6}E6,
{32}1bx,2,3,4,5,6,7,8,1,2,3,4,5,6,7,8,1,2,3,4,5,6,{16}7,{4}8xq4[8:1],
8b,,,5,
{16}3,,,,,,,C,,,,,{4}5,
4,{8},,,,1,1,
,,{4}5,3,6,
4,5,{16}5,4,5,4,5,4,5,4,
{4}5,{8}5,6,{4}5,5,
{8}B6,,,E5,,,{4}B3h[4:3],
{8},,,,,,,,1-5[8:1],
8-4[8:1],1,8,,1,{4}8h[4:3],
4b,4b,4b,{24}2,1,8,3,{48},{16}4,
{8}5-1[8:1],6-2[8:1],5,6,{2}A2h[1:1],
{4}6b,6b,6b,{16}3,4,{8}3,
7,7,7,7,7/3,3,3/6,6,
6/4,4,4/7,7,7/3,3,3,{16}7,5,
{8}6,{16}2,4,{8}3,{16}6,8,{8}7,{16}3,1,{8}2,C,
{32}4,3,2,1,8,7,6,5,4,3,2,1,8,7,6,5,4,3,2,1,8,7,6,5,4,3,2,1,8,7,6,5bh[32:33],
{1},{4},,,{16}2,
1,3-8V25[4:1],8,
{8}5,3,{4}6,8w4[12:1],{24}8b,A4/D4/D5,,,,,,5,
{48},,{16}4,6,3,7,2,8,4,8,3,7,2,6,1,5b,
{6}B1,C,B5,5xw1[12:1],{12},{4}5,
{16},8,7,6/1,2,3/7,6,5/2,3,4/8,7,6/1,2,3/8,7,6,
{4}5/4-6pp8[4:1],{8}4b,3,,2,,1w5[8:1],
,1b,{16},,,,5,4,5,3,6,2,7,1,
8,2-6[8:1],,7-4[8:1],,2,,7,,,,,{8}3/4,3/2,
{16},,,3,4,3,,6,5,6,{48},,{12}4,4,{6}4,
{4}5b/4b,{8}6b/3b,6b/3b,,7b/2b,,8b/1b,
,7b/2b,,8b/2b,{16}2,8,2,8,2,8,2,8,
2,8-3[8:1],,2,,8,,A3h[16:7],{48},,{24}2,1,8,7,6,{4}5-1[8:1],
{16},,,,2,8,2,8,2,8,2,8,{4}2,
{8}1-6[8:1],7,1,7-4[8:1],3,7,{16}1,1,{32},,,,8,
1,2,3,{8}4,{32}1,8,7,6,{16}5,4,5,4,5,{32}4,5,6,7,8,1,2,3,{16}4,
5h,4h,6h,3h,7h,2h,8h,1h,1,1,1,1,1-5[8:1],1,1,1,
{24}1b,,,,,,,,,,,,,4,5,4,5,4,{4}5,
A5h[4:7]/1-6[8:1],1-4[8:1],1-6[8:1],1-4[8:1],
1-6[8:1],1-4[8:1],{2}1,
{4}A4h[4:7]/8-3[8:1],8-5[8:1],8-3[8:1],8-5[8:1],
8-3[8:1],8-5[8:1],{2}8,
{4}1>8<1[2:3],E8,E7,E6,
E5,E6,E7,E8,
{8}7b/6b,5/4,3/2,4/5,7b/6b,7/6,8/1,2/3,
{4}5b/4b,{16}5,4,5,4,5,4,5,4,5,4,3,2,
{4}1,{8}2/1,1/2,{16}1/2,,,2,3,2,,,{8}2/1,
2/1,{16}3,4,3,4,{8}3,2/1,{16}2/1,3,4,5,
{8}6,7/8,8/7,8/7,{16},7,6,7,,,{8}7/8,
7/8,{16}6,5,6,5,{8}6,7/8,7/8,{32}8/7,6,5,4,3,2,1,8,
{16}7,8,7,8,7,8,7,8,{32}7x,6x,8`5x,4x,{16}3x,8,{32}6x,5x,8`4x,3x,2x,1x,{16}8,
1x,8,1,8,1,8,1,{32}8,7,6,5,4,3,2,1`8,7,6,5,4,3,2,{16}1,{32}8,7,
6,3,2,1,,8,7,6,3,2,{16}1,{32}8,7,6,3,2,1,,8,7,6,{48}5,4x,3x,2x,1x,8x,7x,6x,5x,4x,3x,2x,1x,8x,7x,
{24}6x,5x,4x,3x,2x,1x/8x,7,6,5,4,3,2,1/8,7,6,5,4,3,2,1,,D3,A3,D4,
{4}4h[8:1]/5h[8:1],{24}D3,A3,D4,4h[8:1]/5h[8:1],,,,,,D3,A3,D4f,{4}4h[8:1]/5h[8:1],
,,,,{1},
,,(110),
E
