&title=純愛レンズ
&artist=徳井青空 / 楠田亜衣奈
&first=0
&des=luvlily
&lv_5=12+
&inote_5=(186){1},
{16}3<2[1:2],,,,,,,,,,,,,,,,
{16},,,,,,,,,,,,,,,,
{16}5>7[1:1],,,,,,,,,,,,,,,,
{16},,,,1,,,,2,,,,3,,,,
{16}4>8[2:1],,,,,,,,6h[4:1],,,,,,,,
{16}5<2[2:1],,,,,,,,3h[4:1],,,,,,,,
{16}45,,,,45,,,,3,,2,,1,,7b/8b,,
{16},,12,,2,,78,,7,,7,1,8,2,7,1,
{16}8-5[8:1],,,,3h[8:3]/8,,,,4,,4-1[8:1],,,,4-7[8:1]/6,,
{16},,4-8[8:1],,,,8,,7-2[8:1]*-4[8:1],,,,7,,,,
{16}1-5[8:1]/5,,,,6h[8:3]/1,,,,7,,7-3[8:1],,,,8-4[8:1],,
{16},,1-5[8:1],,,,4,,4>1[8:1]*<7[8:1],,,,4,,,,
{16}8,,8,,2,,7h[4:1],,,,8,,1,,2h[4:1],,
{16},,1,,8,,7,,6-2[8:1]*<1[8:1],,,,6b,,,,
{16}4-2[8:1]/8-6[8:1],,,,48,,,,2-6[8:1],,4,,2,,,,
{16}7-5[8:1],,,,4,,4h[4:1],,,,7,,7,,8,,
{16}1-5[8:1]*>4[8:1],,,,1,,,,7-3[8:1],,8,,7,,,,
{16}1-3[8:1]/4-6[8:1],,,,14,,,,4-8[8:1],,7,,4,,,,
{16}1-3[8:1]/6-8[8:1],,,,16,,,,1-6[8:1],,4,,1,,,,
{16}3-8[8:1],,,,5,,5h[4:1],,,,1,,2,6,3,7,
{16}4,,4,,8,,4h[2:1],,,,1-5[8:1],,1,,1<2[8:5]*>8[8:5],,
{16},,1,,,,,,,,,,,,,,
{16}2,,,,3-6[8:1],,,,3h[2:1],,,,,,,,
{16}8-6[8:1],,,,8,,4-2[8:1],,,,4,,,,,,
{16}15,,,,2<4[8:3],,6,,2,,,,,,,,
{16}8-4[8:1],,,,2,,2-6[8:1]*<7[8:1],,,,2,,,,,,
{16}7,,,,6-1[8:1],,,,6h[2:1],,,,,,,,
{16}2-5[8:1],,,,2,,6-1[8:1],,,,6,,,,3,,
{16}2-6[8:1]/4,,,,7,,,,8-4[8:1]/5,,,,3,,,,
{16}1>6[4:1],,,,,,7<2[4:1],,7,,,,,,,,
{16}1-6[8:1],,8,,1,,,,7-2[8:1],,8,,7,,,,
{16}3h[8:3],,,,2,,2>5[8:1]*-7[8:1],,,,2,,,,,,
{16}6<1[8:1],,5,,6,,,,2v5[8:1],,4,,2,,,,
{16}8h[8:3],,,,,,7>2[8:1],,7,,,,6-1[8:1],,,,
{16}3-8[8:1],,,,7-2[8:1],,,,1v4[8:1],,,,5v2[8:1]*<4[8:3],,,,
{16}5,,,,,,,,1h[8:3],,,,,,7,,
{16}2,,8,,3,,6,,1,,5,2,6,3,7>2[8:1]*v4[8:1],,
{16},,7,,,,,,,,,,5,,3,,
{16}24,,5-1[8:1],,,,56,,8-4[8:1],,,,78,,,,
{16}25,,1<6[8:1],,,,12,,4v7[8:1],,,,34,,,,
{16}61,,5v2[8:1],,,,56,,8>3[8:1],,,,78,,,,
{16}4/5h[8:3],,7-3[8:1],,,,7,,,,,,18,,,,
{16}24,,3>5[8:3],,,,34,,5-1[8:1],,,,8,,,,
{16}68,,7<1[8:3],,,,78,,1-5[8:1],,,,4,,,,
{16}2-6[8:1]/6,,,,1-5[8:1],,,,8-4[8:1],,,,7,,7-3[8:1],,
{16},,5,,5w1[4:1],,,,,,,,,,,,
{16}4,5,4,5,3,6,3,6,2,7,2,7,1,8,1,8,
{16}1-5[8:1],,7,,16,,,,7-3[8:1],,2,,47,,,,
{16}4/5v2[8:1],,6,,57,,1v6[8:1],,8v3[8:1],,1b,,8b,,,,
{16}2-6[8:1],,4,,25,,,,7-3[8:1],,5,,47,,1,,
{16}1<5[4:1],,,,5>1[4:1],,,,1-5[8:1],,,,5,,,,
{16}8-4[8:1],,2,,48,,,,2-6[8:1],,6,,24,,,,
{16}1<6[8:1]/8,,2,,13,,5-1[8:1],,4v7[8:1],,5b,,4b,,,,
{16}1-5[8:1],,3,,14,,,,8-4[8:1],,6,,58,,5,,
{16}5-1[8:1],,,,2-7[8:1],,,,6-1[8:1],,,,8b,,,,
{16}4-8[8:1],,6,,47,,,,6-2[8:1],,3,,16,,,,
{16}1/8v3[8:1],,7,,86,,4v7[8:1],,5v2[8:1],,4b,,5b,,,,
{16}3-7[8:1],,1,,38,,,,6-2[8:1],,8,,16,,4,,
{16}4<8[4:1],,,,8>4[4:1],,,,4-8[8:1],,,,8,,,,
{16}5-1[8:1],,3,,15,,,,3-7[8:1],,7,,31,,,,
{16}4<7[8:1]/5,,3,,42,,8v3[8:1],,1-5[8:1],,8b,,1b,,,,
{16}4-8[8:1],,2,,41,,,,5-1[8:1],,7,,85,,8,,
{16}71,,5,,82,,4,,6b/1b,,8b/3b,,5b/1b,,3b/7b,,
{16}8/1-5[8:1],,2,,13,,,,1/8-4[8:1],,7,,68,,,,
{16}5/4-8[8:1],,3,,42,,,,4/5-1[8:1],,6,,75,,,,
{16}2/8-4[8:1],,17,,68,,,,1-5[8:1]/7,,28,,13,,,,
{16}8bw4[8:1],,,,8b,,,,,,1b/7b,,2,8,1w5[8:1],,
{16}28,,1b,,,,,,3,7,1,8,2,6,3,5,
{16}1-4[8:1],,,,6h[8:3]/1,,,,5,,5<8[8:1],,,,5>2[8:1]/3,,
{16},,5-1[8:1],,,,1,,2w6[8:1],,,,2,,,,
{16}8-4[8:1]/4,,,,3h[8:3]/8,,,,2,,2-6[8:1],,,,1-5[8:1],,
{16},,8-4[8:1],,,,5,,5<8[8:1]*>2[8:1],,,,5,,,,
{16}4-1[8:1],,,,7h[8:3]/4,,,,8,,8-5[8:1]*<5[8:1],,,,8-3[8:1]*>3[8:1],,
{16},,8-4[8:1],,,,4,,3-7[8:1],2,1,8,73,,,,
{16}5-1[8:1]/1,,,,2h[8:3]/5,,,,3,,3-7[8:1],,,,4-8[8:1],,
{16},,5-1[8:1],,5,,8,,8-4[8:1],,,,8w4[8:1],,,,
{16}8<8[1:1]*>8[1:1],,,,,,,,,,,,,,,,
{16},,,,,,,,,,,,,,78,,
{16}1b/6b,,,,34,,2,,56,,7,,1,8,2,7,
{32}1,2,3,4,5,6,7,8,
{16}1b,,,,2-6[8:1],,4,,2,,1,,
{16}3-7[8:1],,5,,3,,2,,4-8[8:1],,6,,4,,3,,
{16}5-1[8:1],,7,,5,,4,,6-2[8:1],,8,,6,,5,,
{16}7-3[8:1],,1,,7,,6,,8-4[8:1],,2,,8,,7,,
{16}6-2[8:1],,1,,6,,7,,8-4[8:1],,2,,8,,7,,
{16}6-2[8:1],,1,,6,,7,,8,,2,,7,1,8,1,
{16}7,,,,37,,15,,,,27,,4,6,3,5,
{16}2,,2,,2,,2,,8,,8,,8,,8,,
{16}12,,34,,56,,78,,1b/4b,,5b/7b,,2b/8b,,1bw5[4:1]/5b,,
{16},,,,,,,,,,,,,,,,
E
