&title=風の投影
&artist=SYNC.ART'S
&first=0
&des=Kondou
&lv_5=13
&inote_5=(145){1},
{4}3-6[8:1],7-4[8:1],1w5[8:1],1,
{16}7b/3bV52[4:1],,,,5,,6,,7h[16:3],,,5h[16:3],,,1,,
7/2V41[4:1],,,,4,,5,,6h[16:3],,,4h[16:3],,,8,,
7/1V38[4:1],,,,3,,4,,5h[16:3],,,3h[16:3],,,7,,
65,,8,,75,,1,,65,,8,,75,,1,,
2b/6bV47[4:1],,,,4,,3,,2h[16:3],,,4h[16:3],,,8,,
2/7V58[4:1],,,,5,,4,,3h[16:3],,,5h[16:3],,,1,,
2/8V61[4:1],,,,6,,5,,4h[16:3],,,6h[16:3],,,2,,
8/1,,3,4,2,,6,5,7p3[8:1],,1q5[8:1],,7,,1,,
{4}8bqq2[8:16],,,,3,,,,4>6[8:12],,,,4p6[8:4],,,,
3V57[8:6],,1,,8V64[8:6],,1,,2v4[8:1]*-4[8:1],,7v5[8:1]*-5[8:1],,8-4[8:1]/1-5[8:1],,{16}72,,,72,,,72,,
5b/4b^1[8:1],,,,7,,6,,5/8-3[8:1],,,5,,,6,,
7/4^1[8:1],,,,7,,6,,5^8[8:1]/8>3[8:1],,,,,,,,
5/1^6[8:1],,,,4,,3,,2/5-8[8:1],,,2,,,3,,
4/1^6[8:1],,,,4,,3,,2-5[8:1]/5-1[8:1],,,,,,,,
7b/3bV17[6:1],,,,6,,5,,4v7[8:1],,,3,,,1,,
6V47[6:1]/2,,,,3,,2,,1-5[8:1]/8,,,,1/8,,8,,
7h[8:2]/3h[8:2],,,,,,4,5,2h[16:3],,,1h[16:3],,,8,,
78,,7,8,6,,2,1,3,,7,8,6,1,5,2,
4bq6[8:4],,,,3,,,,2,,,,1^4[8:2],,,,
{8}4^7[8:2],,7^2[8:2],,2^5[8:2],,5,,
7-5[8:1],,1,1,4-8[8:1],,1,,
2-4[8:1],,8,8,5-1[8:1],,8,7,
6p4[8:4],,1,,2,,3^8[8:2],,8^5[8:2],,5^2[8:2],,2^7[8:2],,7,,
5,5,3,3,1,1,7,7,
8/6-4[8:1],,6/3-7[8:1],,3/8-2[8:1],,48,4,
3b/5b^8[8:1],,3,4,5^2[8:1],,8-4[8:1],,
{16}1-3[8:1],,,,5,,6,,7-3[8:1],,,,3,,4,,
{8}5V38[8:2],,7,6,5-1[8:1],,3,,
5V37[8:2],,7,6,5-1[8:1],,3,3,
8^5[8:1]/2,,2,1,8^3[8:1],,5-1[8:1],,
4-2[8:1],,7,7,5V71[6:1]/1,,2,2,
{16}4,8,4,8,3,7,3,7,2,6,2,6,1,5,1,5,
8b-4[8:1],,,4b,,,6b,,8b-4[8:1]*-4[8:1],,,4b,,,2b,,
(144){16}8b,,,,,,,{32}7,8,(145){16}7,,,75,,,64,,
5b^8[8:1]/3b,,,,2,,2,3,4p7[8:1],,,8,,,6,,5/6^1[8:1],,,,
3,,3,4,5h[8:1],,1h[8:1],,2h[8:1],,7h[8:1],,
4>8[16:3],,,8-4[8:1],,,7,,5<1[16:3],,,1-5[8:1],,,2
,,4>6[8:2],,,,6pp3[6:2],,5,,4h[8:2],,,,,,,,
1^4[8:1]/4^7[8:1],,,,1/4qq7[8:3],,,,8,,,7,,,6,,5^8[8:1]/8^3[8:1],,,,
5/8qq3[8:3],,,,2,,,3,,,4,,1<5[8:1]/5>1[8:1],,,,5/1pp5[8:3],,,,8,,,7,,,6,,
4,3,2,1,7,6,5,4,8,1,2,3,{24}1,8,7,6,5,4,
{16}2b,,7,8,7,,3,4,2,,6,5,8,,81,,
7/2,,3,4,3,,7,8,6,,2,1,4,,54,,
1V35[16:3]/7,,,5-2[8:1],,,7,,1V75[16:3],,,5-8[8:1],,,3,,
1V38[8:2],,,,8-5[8:1],,7,,6-1[8:1]*-2[8:1],,,,6,,,,
{16}3b-6[8:1]/7b-3[8:1],,,,3>5[8:2]/7,,,,5,,,3,,,1,,8-4[8:1]/4-7[8:1],,,,8/4>6[8:2],,,,8,,,6,,,4,,53,,2,,54,,7,,64,,2,,54,,73,,6-1[8:1]/1,,6,,6/2-6[8:1],,2,,2/5-1[8:1],,5,,5/3w7[8:1],,3,,3b>3[8:12]*<3[8:12],,,,,,,,,,,,,,,,,,,,,,,,,,,,,,,,
2,1,2,,8,1,8,1h[8:1],,7h[8:1],,5,5,,6,,8h[8:1]/7h[8:1],,,5h[8:1]/4h[8:1],,,12,,1^6[8:1]/2^5[8:1],,,,12,,,,8b,,71,,3,4,2,5h[8:1],,3h[8:1],,4,4,,2,,8h[8:1]/1h[8:1],,,6h[8:1]/5h[8:1],,,4/3,,1h[8:1],,8h[8:1],,7h[8:1],,6h[8:1],,4b,5,3,4b,2,6,4b,,8b,1,7,8b,6,2,8b,,5b,7,1,5b,3,1,5b,,8b,2,4,8b,6,4,8b,,2b/6b,,,,,,,,,,,,,,,,,,,,,,,,,,,,,,,,,
